James Bond: Licence to Kill (1989) m-720p Dual Latino-Inglés [Subt. Esp] (Aventura. Acción)

Maestro Revolver

Well-known member
Miembro del Staff
Administrador
Registro
9 Ago 2012
Mensajes
3.569
Reacciones
59.366
Puntos
113

Reputation:









TÍTULO ORIGINAL: Licence to Kill (James Bond 16)
AÑO: 1989
DURACIÓN: 135 min.
PAÍS: Reino Unido
DIRECTOR: John Glen
GUIÓN: Michael G. Wilson & Richard Maibaum (Personaje: Ian Fleming)
REPARTO: Timothy Dalton, Carey Lowell, Robert Davi, Talisa Soto, Anthony Zerbe, Benicio del Toro, Frank McRae, David Hedison, Everett McGill
PRODUCTORA: MGM / UA. Productor: Albert R. Broccoli
GÉNERO: Aventuras. Acción | James Bond. Espionaje
: http://www.imdb.com/title/tt0097742/






El agente 007 a la caza y captura de un peligroso narcotraficante latinoamericano, con implicaciones personales de por medio: el capo de la droga mató a un amigo suyo, y Bond desea vengarse.
























La pelicula NO tiene ninguna marca... solo colocamos el nombre de esta web en las capturas






Código:
General
Format                                   : Matroska
Format version                           : Version 2
File size                                : 3.06 GiB
Duration                                 : 2h 13mn
Overall bit rate                         : 3 280 Kbps
Movie name                               : www.club-hd.com
Encoded date                             : UTC 2012-12-17 03:00:14
Writing application                      : mkvmerge v5.7.0 ('The Whirlwind') built on Jul  8 2012 20:08:51
Writing library                          : libebml v1.2.3 + libmatroska v1.3.0

Video
ID                                       : 1
Format                                   : AVC
Format/Info                              : Advanced Video Codec
Format profile                           : High@L4.1
Format settings, CABAC                   : Yes
Format settings, ReFrames                : 5 frames
Codec ID                                 : V_MPEG4/ISO/AVC
Duration                                 : 2h 13mn
Bit rate                                 : 2 446 Kbps
Width                                    : 1 280 pixels
Height                                   : 544 pixels
Display aspect ratio                     : 2.35:1
Frame rate mode                          : Constant
Frame rate                               : 23.976 fps
Color space                              : YUV
Chroma subsampling                       : 4:2:0
Bit depth                                : 8 bits
Scan type                                : Progressive
Bits/(Pixel*Frame)                       : 0.147
Stream size                              : 2.22 GiB (73%)
Title                                    : www.club-hd.com
Writing library                          : x264 core 125 r2208 d9d2288
Language                                 : English
Default                                  : Yes
Forced                                   : No
Color primaries                          : BT.709
Transfer characteristics                 : BT.709
Matrix coefficients                      : BT.709

Audio #1
ID                                       : 2
Format                                   : AC-3
Format/Info                              : Audio Coding 3
Mode extension                           : CM (complete main)
Format settings, Endianness              : Big
Codec ID                                 : A_AC3
Duration                                 : 2h 13mn
Bit rate mode                            : Constant
Bit rate                                 : 448 Kbps
Channel(s)                               : 6 channels
Channel positions                        : Front: L C R, Side: L R, LFE
Sampling rate                            : 48.0 KHz
Bit depth                                : 16 bits
Compression mode                         : Lossy
Stream size                              : 427 MiB (14%)
Title                                    : www.club-hd.com  >>  Latino
Language                                 : Spanish
Default                                  : Yes
Forced                                   : No

Audio #2
ID                                       : 3
Format                                   : AC-3
Format/Info                              : Audio Coding 3
Mode extension                           : CM (complete main)
Format settings, Endianness              : Big
Codec ID                                 : A_AC3
Duration                                 : 2h 13mn
Bit rate mode                            : Constant
Bit rate                                 : 384 Kbps
Channel(s)                               : 6 channels
Channel positions                        : Front: L C R, Side: L R, LFE
Sampling rate                            : 48.0 KHz
Bit depth                                : 16 bits
Compression mode                         : Lossy
Stream size                              : 366 MiB (12%)
Title                                    : www.club-hd.com  >>  Inglés
Language                                 : English
Default                                  : No
Forced                                   : No

Text
ID                                       : 4
Format                                   : UTF-8
Codec ID                                 : S_TEXT/UTF8
Codec ID/Info                            : UTF-8 Plain Text
Language                                 : Spanish
Default                                  : No
Forced                                   : No

Menu
00:00:00.000                             : en:00:00:00.000
00:08:37.559                             : en:00:08:37.559
00:11:26.728                             : en:00:11:26.728
00:15:45.069                             : en:00:15:45.069
00:18:28.316                             : en:00:18:28.316
00:27:32.401                             : en:00:27:32.401
00:31:28.345                             : en:00:31:28.345
00:32:52.304                             : en:00:32:52.304
00:36:16.257                             : en:00:36:16.257
00:40:44.984                             : en:00:40:44.984
00:43:33.277                             : en:00:43:33.277
00:46:12.979                             : en:00:46:12.979
00:47:42.485                             : en:00:47:42.485
00:50:38.953                             : en:00:50:38.953
00:54:59.922                             : en:00:54:59.922
00:57:39.539                             : en:00:57:39.539
01:02:05.972                             : en:01:02:05.972
01:11:29.744                             : en:01:11:29.744
01:14:45.815                             : en:01:14:45.815
01:20:23.819                             : en:01:20:23.819
01:25:41.345                             : en:01:25:41.345
01:30:40.185                             : en:01:30:40.185
01:32:34.466                             : en:01:32:34.466
01:38:33.407                             : en:01:38:33.407
01:42:53.667                             : en:01:42:53.667
01:49:44.369                             : en:01:49:44.369
01:54:54.387                             : en:01:54:54.387
01:56:46.499                             : en:01:56:46.499
02:01:21.649                             : en:02:01:21.649
02:05:32.734                             : en:02:05:32.734
02:08:31.537                             : en:02:08:31.537
02:10:36.746                             : en:02:10:36.746










Enlaces de Mega y Fireload solo disponibles para Miembros VIP

Compra tu Membresía VIP y apoya a Club-HD!

ATENCIÓN! Tenemos TODO el material de Club-HD disponible por Mega y Fireload, enlaces 100% activos y online hasta la fecha

Llévate tus cuentas Mega PRO II gratis con tu membresía VIP!
Todos los posts vivos con links de Mega y Fireload.
Todo el material de Club-HD desbloqueado y sin publicidad.

Click Aquí para más información.




Enlaces de Mega y Fireload solo disponibles para Miembros VIP

Compra tu Membresía VIP y apoya a Club-HD!

ATENCIÓN! Tenemos TODO el material de Club-HD disponible por Mega y Fireload, enlaces 100% activos y online hasta la fecha

Llévate tus cuentas Mega PRO II gratis con tu membresía VIP!
Todos los posts vivos con links de Mega y Fireload.
Todo el material de Club-HD desbloqueado y sin publicidad.

Click Aquí para más información.


Enlaces de Mega y Fireload solo disponibles para Miembros VIP

Compra tu Membresía VIP y apoya a Club-HD!

ATENCIÓN! Tenemos TODO el material de Club-HD disponible por Mega y Fireload, enlaces 100% activos y online hasta la fecha

Llévate tus cuentas Mega PRO II gratis con tu membresía VIP!
Todos los posts vivos con links de Mega y Fireload.
Todo el material de Club-HD desbloqueado y sin publicidad.

Click Aquí para más información.


Para ver este contenido oculto, debes dar click en una de las siguientes reacciones : Like Like, Love Love, Haha Haha, Wow Wow, Sad Sad, Angry Angry
 
Última edición:

sunker-123

New member
Registro
27 Ago 2012
Mensajes
2.433
Reacciones
200
Puntos
0
Edad
31

Reputation:

Sin palabras R21, eres el mejor, muchas gracias R21...:dplgar::dplgar::dplgar::dplgar::dplgar:
 

Bankai

Active member
Uploader
Colaborador
Registro
28 Ago 2012
Mensajes
733
Reacciones
48
Puntos
28

Reputation:

bravo sempre sei piu bravo
 

Nosferatu

Well-known member
Súper Moderador
Registro
31 Ago 2012
Mensajes
2.275
Reacciones
1.362
Puntos
113
Edad
44
Ubicación
Welcome to Hell!!

Reputation:

Gracias por esta excelente saga, sos un
hecho de fierro.

GRACIAS MASTER!
 

Usuarios Que Están Viendo Este Tema (Total: 1, Miembros: 0, Invitados: 1)

Arriba