James Bond: On Her Majesty's Secret Service (1969) m-720p Dual Latino-Inglés [Subt. Esp] (Acción)

Maestro Revolver

Well-known member
Miembro del Staff
Administrador
Registro
9 Ago 2012
Mensajes
3.569
Reacciones
59.341
Puntos
113

Reputation:









TÍTULO ORIGINAL: On Her Majesty's Secret Service (James Bond 6)
AÑO: 1969
DURACIÓN: 140 min.
PAÍS: Reino Unido
DIRECTOR: Peter Hunt
GUIÓN: Richard Maibaum (Personaje: Ian Flemming)
REPARTO: George Lazenby, Diana Rigg, Telly Savalas, Ilse Steppat, Gabriele Ferzetti, Yuri Borienko, Bernard Horsfall, George Baker, Lois Maxwell, Desmond Llewelyn, Julie Ege, Joanna Lumley, Bessie Love, Virginia North
PRODUCTORA: MGM / UA
GÉNERO: Acción | James Bond. Espionaje
:http://www.imdb.com/title/tt0064757/





Tras la marcha temporal de Connery, el actor australiano George Lazenby toma el relevo en esta nueva aventura del agente británico 007, que en esta ocasión se asocia a un mafioso -con cuya sensual hija Tracy Di Vicenzo (Diana Rigg) se llega a casar-, para unir sus fuerzas en la lucha conta la malvada organización Spectra. Ambientada en los alpes suizos, el malvado Stavro Blofeld -Savalas- amenaza al mundo entero con un malvado plan: desarrollar y lanzar una peligrosa bacteria que podría acabar con millones de personal en todo el planeta. La ausencia del actor escocés y el poco carisma de Lazenby hicieron de esta entrega uno de sus mayores fracasos comerciales, pero en años posteriores no han faltado los defensores que la reivindican como una de las más interesantes de toda la saga.
























La pelicula NO tiene ninguna marca... solo colocamos el nombre de esta web en las capturas






Código:
General
Format                                   : Matroska
Format version                           : Version 2
File size                                : 3.28 GiB
Duration                                 : 2h 22mn
Overall bit rate                         : 3 298 Kbps
Movie name                               : www.club-hd.com
Encoded date                             : UTC 2012-11-24 19:13:12
Writing application                      : mkvmerge v5.7.0 ('The Whirlwind') built on Jul  8 2012 20:08:51
Writing library                          : libebml v1.2.3 + libmatroska v1.3.0

Video
ID                                       : 1
Format                                   : AVC
Format/Info                              : Advanced Video Codec
Format profile                           : High@L4.1
Format settings, CABAC                   : Yes
Format settings, ReFrames                : 5 frames
Codec ID                                 : V_MPEG4/ISO/AVC
Duration                                 : 2h 22mn
Bit rate                                 : 2 464 Kbps
Width                                    : 1 280 pixels
Height                                   : 544 pixels
Display aspect ratio                     : 2.35:1
Frame rate mode                          : Constant
Frame rate                               : 23.976 fps
Color space                              : YUV
Chroma subsampling                       : 4:2:0
Bit depth                                : 8 bits
Scan type                                : Progressive
Bits/(Pixel*Frame)                       : 0.148
Stream size                              : 2.39 GiB (73%)
Title                                    : www.club-hd.com
Writing library                          : x264 core 125 r2208 d9d2288
Language                                 : English
Default                                  : Yes
Forced                                   : No
Color primaries                          : BT.709
Transfer characteristics                 : BT.709
Matrix coefficients                      : BT.709

Audio #1
ID                                       : 2
Format                                   : AC-3
Format/Info                              : Audio Coding 3
Mode extension                           : CM (complete main)
Format settings, Endianness              : Big
Codec ID                                 : A_AC3
Duration                                 : 2h 22mn
Bit rate mode                            : Constant
Bit rate                                 : 448 Kbps
Channel(s)                               : 6 channels
Channel positions                        : Front: L C R, Side: L R, LFE
Sampling rate                            : 48.0 KHz
Bit depth                                : 16 bits
Compression mode                         : Lossy
Stream size                              : 456 MiB (14%)
Title                                    : www.club-hd.com  >>  Latino
Language                                 : Spanish
Default                                  : Yes
Forced                                   : No

Audio #2
ID                                       : 3
Format                                   : AC-3
Format/Info                              : Audio Coding 3
Mode extension                           : CM (complete main)
Format settings, Endianness              : Big
Codec ID                                 : A_AC3
Duration                                 : 2h 22mn
Bit rate mode                            : Constant
Bit rate                                 : 384 Kbps
Channel(s)                               : 6 channels
Channel positions                        : Front: L C R, Side: L R, LFE
Sampling rate                            : 48.0 KHz
Bit depth                                : 16 bits
Compression mode                         : Lossy
Stream size                              : 391 MiB (12%)
Title                                    : www.club-hd.com  >>  Inglés
Language                                 : English
Default                                  : No
Forced                                   : No

Text
ID                                       : 4
Format                                   : UTF-8
Codec ID                                 : S_TEXT/UTF8
Codec ID/Info                            : UTF-8 Plain Text
Language                                 : Spanish
Default                                  : No
Forced                                   : No

Menu
00:00:00.000                             : en:00:00:00.000
00:01:28.255                             : en:00:01:28.255
00:06:56.833                             : en:00:06:56.833
00:09:28.443                             : en:00:09:28.443
00:14:07.305                             : en:00:14:07.305
00:15:43.442                             : en:00:15:43.442
00:19:43.933                             : en:00:19:43.933
00:26:47.105                             : en:00:26:47.105
00:30:36.251                             : en:00:30:36.251
00:34:59.014                             : en:00:34:59.014
00:37:13.314                             : en:00:37:13.314
00:43:52.129                             : en:00:43:52.129
00:47:43.027                             : en:00:47:43.027
00:54:49.870                             : en:00:54:49.870
00:57:09.217                             : en:00:57:09.217
01:02:37.253                             : en:01:02:37.253
01:06:04.669                             : en:01:06:04.669
01:13:21.063                             : en:01:13:21.063
01:18:08.058                             : en:01:18:08.058
01:22:19.184                             : en:01:22:19.184
01:29:14.933                             : en:01:29:14.933
01:31:36.282                             : en:01:31:36.282
01:38:32.198                             : en:01:38:32.198
01:44:17.668                             : en:01:44:17.668
01:48:26.625                             : en:01:48:26.625
01:53:53.035                             : en:01:53:53.035
01:58:39.321                             : en:01:58:39.321
02:00:46.906                             : en:02:00:46.906
02:05:41.868                             : en:02:05:41.868
02:09:09.909                             : en:02:09:09.909
02:11:52.404                             : en:02:11:52.404
02:15:41.759                             : en:02:15:41.759




Sin Contraseña | Simple Extracción





Links Intercambiables




Enlaces de Mega y Fireload solo disponibles para Miembros VIP

Compra tu Membresía VIP y apoya a Club-HD!

ATENCIÓN! Tenemos TODO el material de Club-HD disponible por Mega y Fireload, enlaces 100% activos y online hasta la fecha

Llévate tus cuentas Mega PRO II gratis con tu membresía VIP!
Todos los posts vivos con links de Mega y Fireload.
Todo el material de Club-HD desbloqueado y sin publicidad.

Click Aquí para más información.




Enlaces de Mega y Fireload solo disponibles para Miembros VIP

Compra tu Membresía VIP y apoya a Club-HD!

ATENCIÓN! Tenemos TODO el material de Club-HD disponible por Mega y Fireload, enlaces 100% activos y online hasta la fecha

Llévate tus cuentas Mega PRO II gratis con tu membresía VIP!
Todos los posts vivos con links de Mega y Fireload.
Todo el material de Club-HD desbloqueado y sin publicidad.

Click Aquí para más información.




Enlaces de Mega y Fireload solo disponibles para Miembros VIP

Compra tu Membresía VIP y apoya a Club-HD!

ATENCIÓN! Tenemos TODO el material de Club-HD disponible por Mega y Fireload, enlaces 100% activos y online hasta la fecha

Llévate tus cuentas Mega PRO II gratis con tu membresía VIP!
Todos los posts vivos con links de Mega y Fireload.
Todo el material de Club-HD desbloqueado y sin publicidad.

Click Aquí para más información.



Para ver este contenido oculto, debes dar click en una de las siguientes reacciones : Like Like, Love Love, Haha Haha, Wow Wow, Sad Sad, Angry Angry



Para ver este contenido oculto, debes dar click en una de las siguientes reacciones : Like Like, Love Love, Haha Haha, Wow Wow, Sad Sad, Angry Angry
 
Última edición:

vhrod

Well-known member
Miembro VIP
Registro
27 Ago 2012
Mensajes
1.366
Reacciones
37
Puntos
48

Reputation:

Desc_g_ Sigo bajando esta saga...que no falte ninguna...GRACIAS Revo
 

Bankai

Active member
Uploader
Colaborador
Registro
28 Ago 2012
Mensajes
733
Reacciones
48
Puntos
28

Reputation:

gracias de nuevo por este super clasico
 

eljumachi

Well-known member
Miembro VIP
Registro
27 Ago 2012
Mensajes
2.174
Reacciones
338
Puntos
83

Reputation:

Gracias R-21 las estaba extrañando saludos
 

Usuarios Que Están Viendo Este Tema (Total: 1, Miembros: 0, Invitados: 1)

Arriba