James Bond: The Living Daylights (1987) m-720p Dual Latino-Inglés [Subt. Esp] (Aventura. Acción)

Maestro Revolver

Well-known member
Miembro del Staff
Administrador
Registro
9 Ago 2012
Mensajes
3.569
Reacciones
59.361
Puntos
113

Reputation:









TÍTULO ORIGINAL: The Living Daylights (James Bond 15)
AÑO: 1987
DURACIÓN: 131 min.
PAÍS: Reino Unido
DIRECTOR: John Glen
GUIÓN: Richard Maibaum & Michael Wilson (Personaje: Ian Fleming)
REPARTO: Timothy Dalton, Maryam d'Abo, Jeroen Krabbé, Joe Don Baker, John Rhys-Davies, Art Malik, Desmond Llewelyn, Robert Brown
PRODUCTORA: MGM / UA. Productor: Albert R. Broccoli
GÉNERO: Acción. Aventuras | James Bond. Espionaje
: http://www.imdb.com/title/tt0093428/






El agente 007 se enfrenta a una nueva misión en Bratislava: ha sido designado expresamente por el general Koskov para que lo proteja al desertar de la KGB. Tras escapar hacia Austria, Koskov se reúne con la organización de Bond en Londres para ponerlos al corriente de los planes de general Puskin, que tiene la intención de asesinar a una serie de agentes británicos. Bond no cree la historia de Koskov, más aún cuando éste es capturado de nuevo por la KGB. Para dar con el paradero de Koskov, Bond regresa a Bratislav, donde encuentra a la novia del general, que también corre peligro. La ayuda a escapar, y descubre que Koskov se halla en Tanger junto al general Whitaker, traficante de armas.
























La pelicula NO tiene ninguna marca... solo colocamos el nombre de esta web en las capturas






Código:
General
Format                                   : Matroska
Format version                           : Version 2
File size                                : 3.05 GiB
Duration                                 : 2h 10mn
Overall bit rate                         : 3 333 Kbps
Movie name                               : www.club-hd.com
Encoded date                             : UTC 2012-12-17 01:57:13
Writing application                      : mkvmerge v5.7.0 ('The Whirlwind') built on Jul  8 2012 20:08:51
Writing library                          : libebml v1.2.3 + libmatroska v1.3.0

Video
ID                                       : 1
Format                                   : AVC
Format/Info                              : Advanced Video Codec
Format profile                           : High@L4.1
Format settings, CABAC                   : Yes
Format settings, ReFrames                : 5 frames
Codec ID                                 : V_MPEG4/ISO/AVC
Duration                                 : 2h 10mn
Bit rate                                 : 2 499 Kbps
Width                                    : 1 280 pixels
Height                                   : 544 pixels
Display aspect ratio                     : 2.35:1
Frame rate mode                          : Constant
Frame rate                               : 23.976 fps
Color space                              : YUV
Chroma subsampling                       : 4:2:0
Bit depth                                : 8 bits
Scan type                                : Progressive
Bits/(Pixel*Frame)                       : 0.150
Stream size                              : 2.23 GiB (73%)
Title                                    : www.club-hd.com
Writing library                          : x264 core 125 r2208 d9d2288
Language                                 : English
Default                                  : Yes
Forced                                   : No
Color primaries                          : BT.709
Transfer characteristics                 : BT.709
Matrix coefficients                      : BT.709

Audio #1
ID                                       : 2
Format                                   : AC-3
Format/Info                              : Audio Coding 3
Mode extension                           : CM (complete main)
Format settings, Endianness              : Big
Codec ID                                 : A_AC3
Duration                                 : 2h 10mn
Bit rate mode                            : Constant
Bit rate                                 : 448 Kbps
Channel(s)                               : 6 channels
Channel positions                        : Front: L C R, Side: L R, LFE
Sampling rate                            : 48.0 KHz
Bit depth                                : 16 bits
Compression mode                         : Lossy
Stream size                              : 419 MiB (13%)
Title                                    : www.club-hd.com  >>  Latino
Language                                 : Spanish
Default                                  : Yes
Forced                                   : No

Audio #2
ID                                       : 3
Format                                   : AC-3
Format/Info                              : Audio Coding 3
Mode extension                           : CM (complete main)
Format settings, Endianness              : Big
Codec ID                                 : A_AC3
Duration                                 : 2h 10mn
Bit rate mode                            : Constant
Bit rate                                 : 384 Kbps
Channel(s)                               : 6 channels
Channel positions                        : Front: L C R, Side: L R, LFE
Sampling rate                            : 48.0 KHz
Bit depth                                : 16 bits
Compression mode                         : Lossy
Stream size                              : 359 MiB (12%)
Title                                    : www.club-hd.com  >>  Inglés
Language                                 : English
Default                                  : No
Forced                                   : No

Text
ID                                       : 4
Format                                   : UTF-8
Codec ID                                 : S_TEXT/UTF8
Codec ID/Info                            : UTF-8 Plain Text
Language                                 : Spanish
Default                                  : No
Forced                                   : No

Menu
00:00:00.000                             : en:00:00:00.000
00:07:32.744                             : en:00:07:32.744
00:10:18.743                             : en:00:10:18.743
00:14:02.216                             : en:00:14:02.216
00:17:02.647                             : en:00:17:02.647
00:22:20.256                             : en:00:22:20.256
00:28:12.941                             : en:00:28:12.941
00:31:43.151                             : en:00:31:43.151
00:35:58.323                             : en:00:35:58.323
00:39:38.209                             : en:00:39:38.209
00:42:27.587                             : en:00:42:27.587
00:44:54.150                             : en:00:44:54.150
00:50:40.955                             : en:00:50:40.955
00:57:12.054                             : en:00:57:12.054
00:59:02.247                             : en:00:59:02.247
01:02:31.164                             : en:01:02:31.164
01:07:36.219                             : en:01:07:36.219
01:12:42.358                             : en:01:12:42.358
01:17:39.655                             : en:01:17:39.655
01:20:26.822                             : en:01:20:26.822
01:24:18.345                             : en:01:24:18.345
01:28:53.703                             : en:01:28:53.703
01:33:16.174                             : en:01:33:16.174
01:37:04.068                             : en:01:37:04.068
01:42:21.177                             : en:01:42:21.177
01:49:25.267                             : en:01:49:25.267
01:52:04.468                             : en:01:52:04.468
01:56:52.631                             : en:01:56:52.631
01:58:35.608                             : en:01:58:35.608
02:00:45.780                             : en:02:00:45.780
02:05:31.733                             : en:02:05:31.733
02:08:13.394                             : en:02:08:13.394










Enlaces de Mega y Fireload solo disponibles para Miembros VIP

Compra tu Membresía VIP y apoya a Club-HD!

ATENCIÓN! Tenemos TODO el material de Club-HD disponible por Mega y Fireload, enlaces 100% activos y online hasta la fecha

Llévate tus cuentas Mega PRO II gratis con tu membresía VIP!
Todos los posts vivos con links de Mega y Fireload.
Todo el material de Club-HD desbloqueado y sin publicidad.

Click Aquí para más información.




Enlaces de Mega y Fireload solo disponibles para Miembros VIP

Compra tu Membresía VIP y apoya a Club-HD!

ATENCIÓN! Tenemos TODO el material de Club-HD disponible por Mega y Fireload, enlaces 100% activos y online hasta la fecha

Llévate tus cuentas Mega PRO II gratis con tu membresía VIP!
Todos los posts vivos con links de Mega y Fireload.
Todo el material de Club-HD desbloqueado y sin publicidad.

Click Aquí para más información.



Enlaces de Mega y Fireload solo disponibles para Miembros VIP

Compra tu Membresía VIP y apoya a Club-HD!

ATENCIÓN! Tenemos TODO el material de Club-HD disponible por Mega y Fireload, enlaces 100% activos y online hasta la fecha

Llévate tus cuentas Mega PRO II gratis con tu membresía VIP!
Todos los posts vivos con links de Mega y Fireload.
Todo el material de Club-HD desbloqueado y sin publicidad.

Click Aquí para más información.



Para ver este contenido oculto, debes dar click en una de las siguientes reacciones : Like Like, Love Love, Haha Haha, Wow Wow, Sad Sad, Angry Angry



Para ver este contenido oculto, debes dar click en una de las siguientes reacciones : Like Like, Love Love, Haha Haha, Wow Wow, Sad Sad, Angry Angry
 
Última edición:

vect79

Member
Registro
9 Sep 2012
Mensajes
242
Reacciones
5
Puntos
18
Edad
42

Reputation:

que buena colección, bajando. gracias.
 

Lug

Well-known member
Registro
24 Oct 2012
Mensajes
1.691
Reacciones
37
Puntos
48
Edad
62

Reputation:

Desc_g_
Muchas gracias....
 

Bankai

Active member
Uploader
Colaborador
Registro
28 Ago 2012
Mensajes
733
Reacciones
48
Puntos
28

Reputation:

gracias aporte 5 estrellas
 

Usuarios Que Están Viendo Este Tema (Total: 1, Miembros: 0, Invitados: 1)

Arriba