James Bond: Thunderball (1965) m-720p Dual Latino-Inglés [Subt. Esp] (Aventura. Acción)

Maestro Revolver

Well-known member
Miembro del Staff
Administrador
Registro
9 Ago 2012
Mensajes
3.569
Reacciones
59.361
Puntos
113

Reputation:









TÍTULO ORIGINAL: Thunderball (James Bond 4)
AÑO: 1965
DURACIÓN: 129 min.
PAÍS: Reino Unido
DIRECTOR: Terence Young
GUIÓN: Richard Maibaum & John Hopkins (Personaje: Ian Fleming)
REPARTO: Sean Connery, Claudine Auger, Rik Van Nutter, Adolfo Celi, Luciana Paluzzi, Bernard Lee, Martine Beswick, Roland Culver
PRODUCTORA: MGM / UA
GÉNERO: Aventuras. Acción | James Bond. Espionaje. Submarinismo
http://www.imdb.com/title/tt0059800/






La organización secreta Spectra se propone infiltrar en la base inglesa de la OTAN a un impostor llamado Angelo, para apoderarse de un bombardero Vulcan Vindicator equipado con dos bombas nucleares. Cuando logra su propósito, Spectra amenaza con destruir una ciudad de EE.UU. o Inglaterra si no le dan cien millones de libras esterlinas. El caso es asignado al agente 007, que en las Islas Bahamas conoce a Dominó, la atractiva amante del misterioso Emilio Largo, que aparenta ser un ocioso millonario pero que en realidad es el número dos de Spectra. Mientras intenta localizar el avión secuestrado, James Bond debe enfrentarse con Fiona Volpe, la cabecilla de los asesinos, y con los secuaces de Emilio Largo.
























La pelicula NO tiene ninguna marca... solo colocamos el nombre de esta web en las capturas






Código:
General
Format                           : Matroska
Format version                   : Version 2
File size                        : 3.05 GiB
Duration                         : 2h 10mn
Overall bit rate                 : 3 344 Kbps
Movie name                       : www.club-hd.com
Encoded date                     : UTC 2012-11-12 22:29:48
Writing application              : mkvmerge v5.7.0 ('The Whirlwind') built on Jul  8 2012 20:08:51
Writing library                  : libebml v1.2.3 + libmatroska v1.3.0

Video
ID                               : 1
Format                           : AVC
Format/Info                      : Advanced Video Codec
Format profile                   : High@L4.1
Format settings, CABAC           : Yes
Format settings, ReFrames        : 5 frames
Codec ID                         : V_MPEG4/ISO/AVC
Duration                         : 2h 10mn
Bit rate                         : 2 510 Kbps
Width                            : 1 280 pixels
Height                           : 544 pixels
Display aspect ratio             : 2.35:1
Frame rate                       : 23.976 fps
Color space                      : YUV
Chroma subsampling               : 4:2:0
Bit depth                        : 8 bits
Scan type                        : Progressive
Bits/(Pixel*Frame)               : 0.150
Stream size                      : 2.23 GiB (73%)
Title                            : www.club-hd.com
Writing library                  : x264 core 125 r2208 d9d2288
Language                         : English
Default                          : Yes
Forced                           : No
Color primaries                  : BT.709-5, BT.1361, IEC 61966-2-4, SMPTE RP177
Transfer characteristics         : BT.709-5, BT.1361
Matrix coefficients              : BT.709-5, BT.1361, IEC 61966-2-4 709, SMPTE RP177

Audio #1
ID                               : 2
Format                           : AC-3
Format/Info                      : Audio Coding 3
Mode extension                   : CM (complete main)
Codec ID                         : A_AC3
Duration                         : 2h 10mn
Bit rate mode                    : Constant
Bit rate                         : 448 Kbps
Channel(s)                       : 6 channels
Channel positions                : Front: L C R, Side: L R, LFE
Sampling rate                    : 48.0 KHz
Bit depth                        : 16 bits
Compression mode                 : Lossy
Stream size                      : 418 MiB (13%)
Title                            : www.club-hd.com  >>  Latino
Language                         : Spanish
Default                          : Yes
Forced                           : No

Audio #2
ID                               : 3
Format                           : AC-3
Format/Info                      : Audio Coding 3
Mode extension                   : CM (complete main)
Codec ID                         : A_AC3
Duration                         : 2h 10mn
Bit rate mode                    : Constant
Bit rate                         : 384 Kbps
Channel(s)                       : 6 channels
Channel positions                : Front: L C R, Side: L R, LFE
Sampling rate                    : 48.0 KHz
Bit depth                        : 16 bits
Compression mode                 : Lossy
Stream size                      : 358 MiB (11%)
Title                            : www.club-hd.com  >>  Inglés
Language                         : English
Default                          : No
Forced                           : No

Text #1
ID                               : 4
Format                           : UTF-8
Codec ID                         : S_TEXT/UTF8
Codec ID/Info                    : UTF-8 Plain Text
Title                            : Forzados
Language                         : Spanish
Default                          : Yes
Forced                           : No

Text #2
ID                               : 5
Format                           : UTF-8
Codec ID                         : S_TEXT/UTF8
Codec ID/Info                    : UTF-8 Plain Text
Language                         : Spanish
Default                          : No
Forced                           : No

Menu
00:00:00.000                     : en:00:00:00.000
00:04:44.743                     : en:00:04:44.743
00:07:44.172                     : en:00:07:44.172
00:11:33.192                     : en:00:11:33.192
00:18:27.565                     : en:00:18:27.565
00:22:46.448                     : en:00:22:46.448
00:26:13.030                     : en:00:26:13.030
00:29:21.551                     : en:00:29:21.551
00:37:03.138                     : en:00:37:03.138
00:38:49.369                     : en:00:38:49.369
00:44:02.682                     : en:00:44:02.682
00:48:42.211                     : en:00:48:42.211
00:54:17.546                     : en:00:54:17.546
00:58:49.151                     : en:00:58:49.151
01:01:38.111                     : en:01:01:38.111
01:02:55.939                     : en:01:02:55.939
01:06:17.515                     : en:01:06:17.515
01:14:24.669                     : en:01:14:24.669
01:21:23.420                     : en:01:21:23.420
01:25:58.111                     : en:01:25:58.111
01:28:53.286                     : en:01:28:53.286
01:31:55.343                     : en:01:31:55.343
01:36:59.856                     : en:01:36:59.856
01:41:45.099                     : en:01:41:45.099
01:48:36.176                     : en:01:48:36.176
01:51:19.673                     : en:01:51:19.673
01:53:14.621                     : en:01:53:14.621
01:55:54.156                     : en:01:55:54.156
02:03:29.527                     : en:02:03:29.527
02:05:03.079                     : en:02:05:03.079
02:08:10.933                     : en:02:08:10.933
02:09:31.055                     : en:02:09:31.055










Enlaces de Mega y Fireload solo disponibles para Miembros VIP

Compra tu Membresía VIP y apoya a Club-HD!

ATENCIÓN! Tenemos TODO el material de Club-HD disponible por Mega y Fireload, enlaces 100% activos y online hasta la fecha

Llévate tus cuentas Mega PRO II gratis con tu membresía VIP!
Todos los posts vivos con links de Mega y Fireload.
Todo el material de Club-HD desbloqueado y sin publicidad.

Click Aquí para más información.




Enlaces de Mega y Fireload solo disponibles para Miembros VIP

Compra tu Membresía VIP y apoya a Club-HD!

ATENCIÓN! Tenemos TODO el material de Club-HD disponible por Mega y Fireload, enlaces 100% activos y online hasta la fecha

Llévate tus cuentas Mega PRO II gratis con tu membresía VIP!
Todos los posts vivos con links de Mega y Fireload.
Todo el material de Club-HD desbloqueado y sin publicidad.

Click Aquí para más información.



Enlaces de Mega y Fireload solo disponibles para Miembros VIP

Compra tu Membresía VIP y apoya a Club-HD!

ATENCIÓN! Tenemos TODO el material de Club-HD disponible por Mega y Fireload, enlaces 100% activos y online hasta la fecha

Llévate tus cuentas Mega PRO II gratis con tu membresía VIP!
Todos los posts vivos con links de Mega y Fireload.
Todo el material de Club-HD desbloqueado y sin publicidad.

Click Aquí para más información.


Para ver este contenido oculto, debes dar click en una de las siguientes reacciones : Like Like, Love Love, Haha Haha, Wow Wow, Sad Sad, Angry Angry



Para ver este contenido oculto, debes dar click en una de las siguientes reacciones : Like Like, Love Love, Haha Haha, Wow Wow, Sad Sad, Angry Angry

 
Última edición:

Nosferatu

Well-known member
Súper Moderador
Registro
31 Ago 2012
Mensajes
2.275
Reacciones
1.362
Puntos
113
Edad
44
Ubicación
Welcome to Hell!!

Reputation:

Muchas Gracias Maestro por estos clásicos que tanto le gustan a mi Madre.:aplausos::aplausos:

GRACIAS R21!
 

georgetwp

Well-known member
Registro
27 Ago 2012
Mensajes
1.761
Reacciones
361
Puntos
83
Edad
31

Reputation:

Excelente aporte y pensar que yo las tengo todas en 720p, pero están solo en ingles DTS, las bajo porque estas si están dobladas, y a mi familia no le gusta ver películas en ingles
 

Usuarios Que Están Viendo Este Tema (Total: 1, Miembros: 0, Invitados: 1)

Arriba