Jeepers Creepers 2 (2003) 720p BDRip Dual Latino-Inglés [Subt. Esp] (Terror)

Maestro Revolver

Well-known member
Miembro del Staff
Administrador
Registro
9 Ago 2012
Mensajes
3.567








TÍTULO ORIGINAL: Jeepers Creepers 2
AÑO: 2003
DURACIÓN: 106 min.
PAÍS: USA
DIRECTOR: Victor Salva
GUIÓN: Victor Salva (Personajes: Victor Salva)
REPARTO: Ray Wise, Jonathan Breck, Eric Nenninger, Garikayi Mutambirwa, Nicki Aycox, Drew Tyler Bell, Billy Aaron Brown, Kasan Butcher, Lena Cardwell, Marieh Delfino, Josh Hammond, Travis Schiffner, Al Santos, Justin Long
PRODUCTORA: MGM / UA presenta una producción American Zoetrope
GÉNERO: Terror | Monstruos. Secuela
: http://www.imdb.com/title/tt0301470/






Hoy es el 22º día en el ritual alimenticio de la abominable criatura conocida como The Creeper, la cual se alimenta de los órganos arrancados vivos de sus víctimas. A este monstruo caníbal procedente de tiempos remotos le queda todavía un día más para hartarse de carne humana y desaparecer de nuevo, y aguardar en hibernación hasta su próxima temporada de caza dentro de 23 años. Taggart y sus hijos se hallan trabajando en los maizales de su propiedad cuando la bestia de enormes alas agarra al benjamín de la familia, transportándolo por los aires hacia un destino que se adivina horripilante...




















La pelicula NO tiene ninguna marca... solo colocamos el nombre de esta web en las capturas






Código:
General
Format                                   : Matroska
Format version                           : Version 2
File size                                : 3.67 GiB
Duration                                 : 1h 44mn
Overall bit rate                         : 5 042 Kbps
Movie name                               : www.club-hd.com
Encoded date                             : UTC 2013-10-10 01:31:25
Writing application                      : mkvmerge v5.7.0 ('The Whirlwind') built on Jul  8 2012 20:08:51
Writing library                          : libebml v1.2.3 + libmatroska v1.3.0
Attachment                               : Yes

Video
ID                                       : 1
Format                                   : AVC
Format/Info                              : Advanced Video Codec
Format profile                           : High@L4.1
Format settings, CABAC                   : Yes
Format settings, ReFrames                : 5 frames
Codec ID                                 : V_MPEG4/ISO/AVC
Duration                                 : 1h 44mn
Bit rate                                 : 4 301 Kbps
Width                                    : 1 280 pixels
Height                                   : 544 pixels
Display aspect ratio                     : 2.35:1
Frame rate mode                          : Constant
Frame rate                               : 23.976 fps
Color space                              : YUV
Chroma subsampling                       : 4:2:0
Bit depth                                : 8 bits
Scan type                                : Progressive
Bits/(Pixel*Frame)                       : 0.258
Stream size                              : 3.13 GiB (85%)
Title                                    : www.club-hd.com
Language                                 : English
Default                                  : Yes
Forced                                   : No

Audio #1
ID                                       : 2
Format                                   : AC-3
Format/Info                              : Audio Coding 3
Format profile                           : Dolby Digital
Mode extension                           : CM (complete main)
Format settings, Endianness              : Big
Codec ID                                 : A_AC3
Duration                                 : 1h 44mn
Bit rate mode                            : Constant
Bit rate                                 : 192 Kbps
Channel(s)                               : 2 channels
Channel positions                        : Front: L R
Sampling rate                            : 48.0 KHz
Bit depth                                : 16 bits
Compression mode                         : Lossy
Delay relative to video                  : 2s 0ms
Stream size                              : 143 MiB (4%)
Title                                    : www.club-hd.com  >>  Latino
Language                                 : Spanish
Default                                  : Yes
Forced                                   : No

Audio #2
ID                                       : 3
Format                                   : AC-3
Format/Info                              : Audio Coding 3
Mode extension                           : CM (complete main)
Format settings, Endianness              : Big
Codec ID                                 : A_AC3
Duration                                 : 1h 44mn
Bit rate mode                            : Constant
Bit rate                                 : 448 Kbps
Channel(s)                               : 6 channels
Channel positions                        : Front: L C R, Side: L R, LFE
Sampling rate                            : 48.0 KHz
Bit depth                                : 16 bits
Compression mode                         : Lossy
Stream size                              : 333 MiB (9%)
Title                                    : www.club-hd.com  >>  Inglés
Language                                 : English
Default                                  : No
Forced                                   : No

Text
ID                                       : 4
Format                                   : UTF-8
Codec ID                                 : S_TEXT/UTF8
Codec ID/Info                            : UTF-8 Plain Text
Language                                 : Spanish
Default                                  : No
Forced                                   : No

Menu
00:00:00.000                             : en:00:00:00.000
00:04:57.047                             : en:00:04:57.047
00:06:16.167                             : en:00:06:16.167
00:08:02.816                             : en:00:08:02.816
00:12:59.570                             : en:00:12:59.570
00:15:24.382                             : en:00:15:24.382
00:18:03.582                             : en:00:18:03.582
00:20:42.450                             : en:00:20:42.450
00:23:17.021                             : en:00:23:17.021
00:26:26.877                             : en:00:26:26.877
00:28:59.988                             : en:00:28:59.988
00:30:46.845                             : en:00:30:46.845
00:32:29.197                             : en:00:32:29.197
00:35:43.350                             : en:00:35:43.350
00:39:45.842                             : en:00:39:45.842
00:42:34.719                             : en:00:42:34.719
00:45:32.396                             : en:00:45:32.396
00:48:45.339                             : en:00:48:45.339
00:50:50.631                             : en:00:50:50.631
00:55:25.739                             : en:00:55:25.739
00:57:42.834                             : en:00:57:42.834
01:00:07.395                             : en:01:00:07.395
01:05:35.431                             : en:01:05:35.431
01:09:30.958                             : en:01:09:30.958
01:11:22.945                             : en:01:11:22.945
01:13:01.544                             : en:01:13:01.544
01:16:24.872                             : en:01:16:24.872
01:20:44.923                             : en:01:20:44.923
01:24:45.247                             : en:01:24:45.247
01:29:41.418                             : en:01:29:41.418
01:33:48.748                             : en:01:33:48.748
01:38:02.752                             : en:01:38:02.752








Enlaces de Mega y Google Drive solo disponibles para Miembros VIP

Compra tu Membresía VIP y apoya a Club-HD!

ATENCIÓN! Tenemos TODO el material de Club-HD disponible por Mega y Google Drive, enlaces 100% activos y online hasta la fecha

Llévate tus cuentas Mega PRO III gratis con tu membresía VIP!
Todos los posts vivos con links de Mega y Google Drive.
Todo el material de Club-HD desbloqueado y sin publicidad.

Click Aquí para más información.



Enlaces de Mega y Google Drive solo disponibles para Miembros VIP

Compra tu Membresía VIP y apoya a Club-HD!

ATENCIÓN! Tenemos TODO el material de Club-HD disponible por Mega y Google Drive, enlaces 100% activos y online hasta la fecha

Llévate tus cuentas Mega PRO III gratis con tu membresía VIP!
Todos los posts vivos con links de Mega y Google Drive.
Todo el material de Club-HD desbloqueado y sin publicidad.

Click Aquí para más información.



Para ver este contenido oculto, debes dar click en una de las siguientes reacciones : Like Like, Love Love, Haha Haha, Wow Wow, Sad Sad, Angry Angry



Para ver este contenido oculto, debes dar click en una de las siguientes reacciones : Like Like, Love Love, Haha Haha, Wow Wow, Sad Sad, Angry Angry
 
Última edición por un moderador:

Usuarios Que Están Viendo Este Tema (Total: 1, Miembros: 0, Invitados: 1)

Quién Leyó Este Tema (Total Miembros: 1)

Arriba