Judge Dredd (1995) m-720p Dual Latino-Inglés [Subt. Esp-Ing] (Ciencia ficción)

Maestro Revolver

Well-known member
Miembro del Staff
Administrador
Registro
9 Ago 2012
Mensajes
3.569
Reacciones
59.471
Puntos
113

Reputation:









TÍTULO ORIGINAL: Judge Dredd
AÑO: 1995
DURACIÓN: 95 min.
PAÍS: USA
DIRECTOR: Danny Cannon
GUIÓN: William Wisher, Steven E. De Souza
REPARTO: Sylvester Stallone, Armand Assante, Diane Lane, Rob Schneider, Max von Sydow, Ewen Bremner, Joan Chen, Jurgen Prochnow, Joanna Miles, Balthazar Getty
PRODUCTORA: Buena Vista
GÉNERO: Ciencia ficción. Acción. Fantástico | Cómic. Cyberpunk
http://www.imdb.com/title/tt0113492/






En el año 2139, la humanidad vive envuelta en una permanente violencia. Sin embargo, en MegaCity Uno, una de las tres megaciudades que existen en Estados Unidos, hay un hombre dispuesto a luchar contra el crimen: el impacable Juez Dredd.
























La pelicula NO tiene ninguna marca... solo colocamos el nombre de esta web en las capturas






Código:
General
Format                           : Matroska
Format version                   : Version 2
File size                        : 2.22 GiB
Duration                         : 1h 36mn
Overall bit rate                 : 3 299 Kbps
Movie name                       : www.club-hd.com
Encoded date                     : UTC 2012-10-20 02:25:00
Writing application              : mkvmerge v5.7.0 ('The Whirlwind') built on Jul  8 2012 20:08:51
Writing library                  : libebml v1.2.3 + libmatroska v1.3.0

Video
ID                               : 1
Format                           : AVC
Format/Info                      : Advanced Video Codec
Format profile                   : High@L4.1
Format settings, CABAC           : Yes
Format settings, ReFrames        : 8 frames
Codec ID                         : V_MPEG4/ISO/AVC
Duration                         : 1h 36mn
Bit rate                         : 2 535 Kbps
Width                            : 1 280 pixels
Height                           : 548 pixels
Display aspect ratio             : 2.35:1
Frame rate                       : 23.976 fps
Color space                      : YUV
Chroma subsampling               : 4:2:0
Bit depth                        : 8 bits
Scan type                        : Progressive
Bits/(Pixel*Frame)               : 0.151
Stream size                      : 1.66 GiB (75%)
Title                            : www.club-hd.com
Writing library                  : x264 core 125 r2208 d9d2288
Language                         : English
Default                          : Yes
Forced                           : No

Audio #1
ID                               : 2
Format                           : AC-3
Format/Info                      : Audio Coding 3
Format profile                   : Dolby Digital
Mode extension                   : CM (complete main)
Codec ID                         : A_AC3
Duration                         : 1h 36mn
Bit rate mode                    : Constant
Bit rate                         : 320 Kbps
Channel(s)                       : 2 channels
Channel positions                : Front: L R
Sampling rate                    : 48.0 KHz
Bit depth                        : 16 bits
Compression mode                 : Lossy
Stream size                      : 220 MiB (10%)
Title                            : www.club-hd.com  >>  Latino
Language                         : Spanish
Default                          : Yes
Forced                           : No

Audio #2
ID                               : 3
Format                           : AC-3
Format/Info                      : Audio Coding 3
Mode extension                   : CM (complete main)
Codec ID                         : A_AC3
Duration                         : 1h 36mn
Bit rate mode                    : Constant
Bit rate                         : 448 Kbps
Channel(s)                       : 6 channels
Channel positions                : Front: L C R, Side: L R, LFE
Sampling rate                    : 48.0 KHz
Bit depth                        : 16 bits
Compression mode                 : Lossy
Stream size                      : 308 MiB (14%)
Title                            : www.club-hd.com  >>  Inglés
Language                         : English
Default                          : No
Forced                           : No

Text #1
ID                               : 4
Format                           : UTF-8
Codec ID                         : S_TEXT/UTF8
Codec ID/Info                    : UTF-8 Plain Text
Language                         : Spanish
Default                          : No
Forced                           : No

Text #2
ID                               : 5
Format                           : UTF-8
Codec ID                         : S_TEXT/UTF8
Codec ID/Info                    : UTF-8 Plain Text
Language                         : English
Default                          : No
Forced                           : No

Menu
00:00:00.000                     : en:Chapter 1
00:06:11.705                     : en:Chapter 2
00:15:59.834                     : en:Chapter 3
00:25:25.315                     : en:Chapter 4
00:31:53.662                     : en:Chapter 5
00:43:57.677                     : en:Chapter 6
00:48:17.061                     : en:Chapter 7
00:56:21.920                     : en:Chapter 8
01:05:21.459                     : en:Chapter 9
01:09:03.765                     : en:Chapter 10
01:10:57.420                     : en:Chapter 11
01:14:03.481                     : en:Chapter 12
01:17:25.891                     : en:Chapter 13
01:20:28.866                     : en:Chapter 14
01:26:01.156                     : en:Chapter 15
01:30:20.707                     : en:Chapter 16










Enlaces de Mega y Fireload solo disponibles para Miembros VIP

Compra tu Membresía VIP y apoya a Club-HD!

ATENCIÓN! Tenemos TODO el material de Club-HD disponible por Mega y Fireload, enlaces 100% activos y online hasta la fecha

Llévate tus cuentas Mega PRO II gratis con tu membresía VIP!
Todos los posts vivos con links de Mega y Fireload.
Todo el material de Club-HD desbloqueado y sin publicidad.

Click Aquí para más información.




Enlaces de Mega y Fireload solo disponibles para Miembros VIP

Compra tu Membresía VIP y apoya a Club-HD!

ATENCIÓN! Tenemos TODO el material de Club-HD disponible por Mega y Fireload, enlaces 100% activos y online hasta la fecha

Llévate tus cuentas Mega PRO II gratis con tu membresía VIP!
Todos los posts vivos con links de Mega y Fireload.
Todo el material de Club-HD desbloqueado y sin publicidad.

Click Aquí para más información.

Enlaces de Mega y Fireload solo disponibles para Miembros VIP

Compra tu Membresía VIP y apoya a Club-HD!

ATENCIÓN! Tenemos TODO el material de Club-HD disponible por Mega y Fireload, enlaces 100% activos y online hasta la fecha

Llévate tus cuentas Mega PRO II gratis con tu membresía VIP!
Todos los posts vivos con links de Mega y Fireload.
Todo el material de Club-HD desbloqueado y sin publicidad.

Click Aquí para más información.



Para ver este contenido oculto, debes dar click en una de las siguientes reacciones : Like Like, Love Love, Haha Haha, Wow Wow, Sad Sad, Angry Angry


http://q.gs/EoLfe
http://q.gs/EoLff

Contraseña: 47143933WZ?RRF35

 
Última edición:

Bankai

Active member
Uploader
Colaborador
Registro
28 Ago 2012
Mensajes
734
Reacciones
50
Puntos
28

Reputation:

gracias de nuevo hermano ese es un tremendo film
 

RATMachine

New member
Registro
17 Oct 2012
Mensajes
27
Reacciones
0
Puntos
0
Edad
38

Reputation:

Gracias nuevamente, la anterior me salia que el archivo 3 estaba dañado
 

Usuarios Que Están Viendo Este Tema (Total: 1, Miembros: 0, Invitados: 1)

Arriba