• Este aviso va dirigido a todos los nuevos miembros recien llegados a Club-HD. Les recordamos que la direccion URL de este sitio web es , asi que deben acceder únicamente por esta URL. Sean todos bienvenidos al Club!

Jungle (2017) 1080p BDRip Dual Latino-Inglés [Subt. Esp-Eng] (Drama | Basado en hechos reales)

Alsamishak

Well-known member
Uploader
Registrado
20 Oct 2013
Mensajes
72
Puntos de reacción
404
Puntos
53




Título Original: Jungle.
Año: 2017
Duración: 115 min.
País: Australia.
Director: Greg McLean.
Guion: Justin Monjo (Libro: Yossi Ghinsberg).
Reparto: Daniel Radcliffe, Thomas Kretschmann, Alex Russell, Yasmin Kassim, Jacek Koman, Lily Sullivan, Angie Milliken, Joel Jackson, Luis Jose Lopez, Paris Moletti, Joey Vieira.
Productora: Screen Australia, Screen Queensland.
Género: Aventuras. Drama | Basado en hechos reales. Biográfico. Supervivencia. Naturaleza. Años 80.







Basada en hechos reales. A principios de la década de 1980, el joven aventurero israelí Yossi Ghinsberg viaja a Bolivia con la intención de viajar al corazón de la selva amazónica. Una vez allí, conoce a Marcus Stamm, un maestro de escuela suizo, y a su amigo Kevin Gale, un excursionista estadounidense y gran fotógrafo. Estando los tres alojados en un hostal de La Paz, Yossi conoce a un austriaco, Karl Ruprechter, que firma conocer la existencia de una tribu indígena en la jungla que los tres deberían ir a ver. Karl dice que conoce la jungla y que les puede acompañar. Yossi, emocionado por la perspectiva de conocer la jungla inexplorada y conocer tribus desconocidas, decide creerle. Regresa al hostal para convencer a Marcus y Kevin de que lo acompañen.





MÁS INFORMACIÓN






























Format : Matroska
Format version : Version 4
File size : 8.25 GiB
Duration : 1 h 55 min
Overall bit rate : 10.2 Mb/s
Encoded date : UTC 2019-10-19 21:41:55
Writing application : mkvmerge v20.0.0 ('I Am The Sun') 64-bit
Writing library : libebml v1.3.5 + libmatroska v1.4.8

Video
ID : 1
Format : AVC
Format/Info : Advanced Video Codec
Format profile : High@L4.1
Format settings : CABAC / 5 Ref Frames
Format settings, CABAC : Yes
Format settings, Reference frames : 5 frames
Codec ID : V_MPEG4/ISO/AVC
Duration : 1 h 55 min
Bit rate : 8 347 kb/s
Width : 1 920 pixels
Height : 800 pixels
Display aspect ratio : 2.40:1
Frame rate mode : Constant
Frame rate : 23.976 (24000/1001) FPS
Color space : YUV
Chroma subsampling : 4:2:0
Bit depth : 8 bits
Scan type : Progressive
Bits/(Pixel*Frame) : 0.227
Stream size : 6.73 GiB (81%)
Writing library : x264 core 152 r2851 ba24899
Encoding settings : cabac=1 / ref=5 / deblock=1:1:1 / analyse=0x3:0x133 / me=umh / subme=8 / psy=1 / psy_rd=1.00:0.00 / mixed_ref=1 / me_range=16 / chroma_me=1 / trellis=1 / 8x8dct=1 / cqm=0 / deadzone=21,11 / fast_pskip=0 / chroma_qp_offset=-2 / threads=12 / lookahead_threads=2 / sliced_threads=0 / nr=0 / decimate=1 / interlaced=0 / bluray_compat=0 / constrained_intra=0 / bframes=3 / b_pyramid=2 / b_adapt=2 / b_bias=0 / direct=3 / weightb=1 / open_gop=0 / weightp=2 / keyint=250 / keyint_min=23 / scenecut=40 / intra_refresh=0 / rc_lookahead=50 / rc=2pass / mbtree=1 / bitrate=8347 / ratetol=1.0 / qcomp=0.60 / qpmin=0 / qpmax=69 / qpstep=4 / cplxblur=20.0 / qblur=0.5 / ip_ratio=1.40 / aq=1:1.00
Language : English
Default : Yes
Forced : No

Audio #1
ID : 2
Format : DTS
Format/Info : Digital Theater Systems
Codec ID : A_DTS
Duration : 1 h 55 min
Bit rate mode : Constant
Bit rate : 1 509 kb/s
Channel(s) : 6 channels
Channel layout : C L R Ls Rs LFE
Sampling rate : 48.0 kHz
Frame rate : 93.750 FPS (512 SPF)
Bit depth : 24 bits
Compression mode : Lossy
Stream size : 1.22 GiB (15%)
Title : English
Language : English
Default : No
Forced : No

Audio #2
ID : 5
Format : AC-3
Format/Info : Audio Coding 3
Commercial name : Dolby Digital
Codec ID : A_AC3
Duration : 1 h 55 min
Bit rate mode : Constant
Bit rate : 384 kb/s
Channel(s) : 6 channels
Channel layout : L R C LFE Ls Rs
Sampling rate : 48.0 kHz
Frame rate : 31.250 FPS (1536 SPF)
Compression mode : Lossy
Delay relative to video : 5 s 400 ms
Stream size : 317 MiB (4%)
Title : Latino
Language : Spanish
Service kind : Complete Main
Default : Yes
Forced : Yes

Text #1
ID : 3
Format : UTF-8
Codec ID : S_TEXT/UTF8
Codec ID/Info : UTF-8 Plain Text
Duration : 17 min 24 s
Bit rate : 4 b/s
Count of elements : 21
Stream size : 568 Bytes (0%)
Title : Eng
Language : English
Default : No
Forced : No

Text #2
ID : 4
Format : UTF-8
Codec ID : S_TEXT/UTF8
Codec ID/Info : UTF-8 Plain Text
Duration : 1 h 49 min
Bit rate : 39 b/s
Count of elements : 1023
Stream size : 31.4 KiB (0%)
Title : Spa
Language : Spanish
Default : No
Forced : No

Text #3
ID : 6
Format : UTF-8
Codec ID : S_TEXT/UTF8
Codec ID/Info : UTF-8 Plain Text
Duration : 1 h 49 min
Bit rate : 2 b/s
Count of elements : 44
Stream size : 1.62 KiB (0%)
Title : Forzados
Language : Spanish
Default : Yes
Forced : Yes

Menu
00:00:00.000 : en:00:00:00.000
00:09:58.848 : en:00:09:58.848
00:19:46.602 : en:00:19:46.602
00:29:15.379 : en:00:29:15.379
00:38:54.415 : en:00:38:54.415
00:49:27.131 : en:00:49:27.131
00:58:30.507 : en:00:58:30.507
01:07:49.691 : en:01:07:49.691
01:16:25.331 : en:01:16:25.331
01:24:54.464 : en:01:24:54.464
01:32:54.611 : en:01:32:54.611
01:44:37.438 : en:01:44:37.438


★ CONTRASEÑA ★


★ DESCARGA ★

Todos los links son Intercambiables!




DISPONIBLE
⭐¡VER ONLINE y DESCARGAR 1 LINK!⭐

Enlaces de Mega y Google Drive solo disponibles para Miembros VIP

Compra tu Membresía VIP y apoya a Club-HD!

ATENCIÓN! Tenemos TODO el material de Club-HD disponible por Mega y Google Drive, enlaces 100% activos y online hasta la fecha

Llévate tus cuentas Mega PRO II gratis con tu membresía VIP!
Todos los posts vivos con links de Mega y Google Drive.
Todo el material de Club-HD desbloqueado y sin publicidad.

Click Aquí para más información.


Enlaces de Mega y Google Drive solo disponibles para Miembros VIP

Compra tu Membresía VIP y apoya a Club-HD!

ATENCIÓN! Tenemos TODO el material de Club-HD disponible por Mega y Google Drive, enlaces 100% activos y online hasta la fecha

Llévate tus cuentas Mega PRO II gratis con tu membresía VIP!
Todos los posts vivos con links de Mega y Google Drive.
Todo el material de Club-HD desbloqueado y sin publicidad.

Click Aquí para más información.



Para ver este contenido oculto, debes dar click en una de las siguientes reacciones: Like Like, Love Love, Haha Haha, Wow Wow, Sad Sad, Angry Angry



Para ver este contenido oculto, debes dar click en una de las siguientes reacciones: Like Like, Love Love, Haha Haha, Wow Wow, Sad Sad, Angry Angry



Para ver este contenido oculto, debes dar click en una de las siguientes reacciones: Like Like, Love Love, Haha Haha, Wow Wow, Sad Sad, Angry Angry



Para ver este contenido oculto, debes dar click en una de las siguientes reacciones: Like Like, Love Love, Haha Haha, Wow Wow, Sad Sad, Angry Angry
 
Última edición:

galiel38

Active member
Registrado
28 Sep 2012
Mensajes
708
Puntos de reacción
86
Puntos
28
Edad
32
Muchas gracias por la película.
 

lordvader

Member
Miembro VIP
Registrado
28 Ago 2012
Mensajes
427
Puntos de reacción
24
Puntos
18
Edad
48
Muchas gracias por el aporte!!
 

jmendoza

Member
Miembro VIP
Registrado
28 Jul 2020
Mensajes
225
Puntos de reacción
6
Puntos
18
Gracias por la película
agregado a la cola de descargas
saludos desde Perú
 

cripp

Well-known member
Registrado
27 Ago 2012
Mensajes
8,196
Puntos de reacción
495
Puntos
113
Gracias por compartir
 

Usuarios Que Están Viendo Este Tema (Total: 1, Miembros: 0, Invitados: 1)

Arriba