Jurassic Park (1993) 3D H-SBS 1080p BDRip Dual Latino-Inglés [Subt. Esp] (Ciencia ficción. Aventuras. Thriller)

Maestro Revolver

Well-known member
Miembro del Staff
Administrador
Registro
9 Ago 2012
Mensajes
3.567








TÍTULO ORIGINAL: Jurassic Park
AÑO: 1993
DURACIÓN: 120 min.
PAÍS: USA
DIRECTOR: Steven Spielberg
GUIÓN: David Koepp & Michael Crichton (Novela: Michael Crichton)
REPARTO: Sam Neill, Laura Dern, Jeff Goldblum, Richard Attenborough, Ariana Richards, Joseph Mazzello, Wayne Knight, Samuel L. Jackson, Bob Peck, Martin Ferrero, B.D. Wong
PRODUCTORA: Universal Pictures/ Amblin Entertainment
GÉNERO: Ciencia ficción. Aventuras. Thriller | Dinosaurios
: http://www.imdb.com/title/tt0107290/






El multimillonario John Hammond consigue hacer realidad su sueño de clonar dinosaurios del Jurásico y crear con ellos un parque temático en una isla remota. Antes de abrirlo al público, invita a una pareja de eminentes científicos y a un matemático para que comprueben la viabilidad del proyecto. Pero las medidas de seguridad del parque no prevén el instinto de supervivencia de la madre naturaleza ni la codicia humana.
























La pelicula NO tiene ninguna marca... solo colocamos el nombre de esta web en las capturas






Código:
General
Format                                   : Matroska
Format version                           : Version 3 / Version 2
File size                                : 12.5 GiB
Duration                                 : 2h 6mn
Overall bit rate                         : 14.1 Mbps
Movie name                               : www.club-hd.com
Encoded date                             : UTC 2013-04-26 02:40:21
Writing application                      : mkvmerge v5.7.0 ('The Whirlwind') built on Jul  8 2012 20:08:51
Writing library                          : libebml v1.2.3 + libmatroska v1.3.0

Video
ID                                       : 1
Format                                   : AVC
Format/Info                              : Advanced Video Codec
Format profile                           : High@L4.1
MultiView_Count                          : 2
MultiView_Layout                         : Side by Side (left eye first)
Format settings, CABAC                   : Yes
Format settings, ReFrames                : 4 frames
Codec ID                                 : V_MPEG4/ISO/AVC
Duration                                 : 2h 6mn
Bit rate                                 : 11.0 Mbps
Width                                    : 1 920 pixels
Height                                   : 1 080 pixels
Display aspect ratio                     : 16:9
Frame rate mode                          : Constant
Frame rate                               : 23.976 fps
Color space                              : YUV
Chroma subsampling                       : 4:2:0
Bit depth                                : 8 bits
Scan type                                : Progressive
Bits/(Pixel*Frame)                       : 0.222
Stream size                              : 9.79 GiB (78%)
Title                                    : www.club-hd.com
Writing library                          : x264 core 130 r2273 b3065e6
Language                                 : English
Default                                  : Yes
Forced                                   : No

Audio #1
ID                                       : 2
Format                                   : AC-3
Format/Info                              : Audio Coding 3
Mode extension                           : CM (complete main)
Format settings, Endianness              : Big
Codec ID                                 : A_AC3
Duration                                 : 2h 6mn
Bit rate mode                            : Constant
Bit rate                                 : 640 Kbps
Channel(s)                               : 6 channels
Channel positions                        : Front: L C R, Side: L R, LFE
Sampling rate                            : 48.0 KHz
Bit depth                                : 16 bits
Compression mode                         : Lossy
Delay relative to video                  : 2s 500ms
Stream size                              : 581 MiB (5%)
Title                                    : www.club-hd.com  -->  Latino AC3 5.1
Language                                 : Spanish
Default                                  : Yes
Forced                                   : No

Audio #2
ID                                       : 3
Format                                   : AC-3
Format/Info                              : Audio Coding 3
Mode extension                           : CM (complete main)
Format settings, Endianness              : Big
Codec ID                                 : A_AC3
Duration                                 : 2h 6mn
Bit rate mode                            : Constant
Bit rate                                 : 640 Kbps
Channel(s)                               : 6 channels
Channel positions                        : Front: L C R, Side: L R, LFE
Sampling rate                            : 48.0 KHz
Bit depth                                : 16 bits
Compression mode                         : Lossy
Stream size                              : 581 MiB (5%)
Title                                    : www.club-hd.com  >>  Inglés AC3 5.1
Language                                 : English
Default                                  : No
Forced                                   : No

Audio #3
ID                                       : 4
Format                                   : DTS
Format/Info                              : Digital Theater Systems
Mode                                     : 16
Format settings, Endianness              : Big
Codec ID                                 : A_DTS
Duration                                 : 2h 6mn
Bit rate mode                            : Constant
Bit rate                                 : 1 509 Kbps
Channel(s)                               : 6 channels
Channel positions                        : Front: L C R, Side: L R, LFE
Sampling rate                            : 48.0 KHz
Bit depth                                : 24 bits
Compression mode                         : Lossy
Stream size                              : 1.34 GiB (11%)
Title                                    : www.club-hd.com  >>  Inglés DTS 5.1
Language                                 : English
Default                                  : No
Forced                                   : No

Text #1
ID                                       : 5
Format                                   : UTF-8
Codec ID                                 : S_TEXT/UTF8
Codec ID/Info                            : UTF-8 Plain Text
Title                                    : Forzados
Language                                 : Spanish
Default                                  : Yes
Forced                                   : No

Text #2
ID                                       : 6
Format                                   : UTF-8
Codec ID                                 : S_TEXT/UTF8
Codec ID/Info                            : UTF-8 Plain Text
Language                                 : Spanish
Default                                  : No
Forced                                   : No

Menu
00:00:00.000                             : en:00:00:00.000
00:05:22.197                             : en:00:05:22.197
00:10:17.116                             : en:00:10:17.116
00:15:19.418                             : en:00:15:19.418
00:19:35.591                             : en:00:19:35.591
00:23:49.178                             : en:00:23:49.178
00:31:42.526                             : en:00:31:42.526
00:38:01.571                             : en:00:38:01.571
00:40:29.052                             : en:00:40:29.052
00:55:30.410                             : en:00:55:30.410
01:01:45.619                             : en:01:01:45.619
01:10:46.492                             : en:01:10:46.492
01:20:03.507                             : en:01:20:03.507
01:34:06.349                             : en:01:34:06.349
01:39:47.690                             : en:01:39:47.690
01:43:45.553                             : en:01:43:45.553
01:47:59.223                             : en:01:47:59.223
01:54:47.756                             : en:01:54:47.756
01:58:06.788                             : en:01:58:06.788
01:59:58.358                             : en:01:59:58.358








Enlaces de Mega y Google Drive solo disponibles para Miembros VIP

Compra tu Membresía VIP y apoya a Club-HD!

ATENCIÓN! Tenemos TODO el material de Club-HD disponible por Mega y Google Drive, enlaces 100% activos y online hasta la fecha

Llévate tus cuentas Mega PRO III gratis con tu membresía VIP!
Todos los posts vivos con links de Mega y Google Drive.
Todo el material de Club-HD desbloqueado y sin publicidad.

Click Aquí para más información.



Para ver este contenido oculto, debes dar click en una de las siguientes reacciones : Like Like, Love Love, Haha Haha, Wow Wow, Sad Sad, Angry Angry
 
Última edición por un moderador:

Nosferatu

Well-known member
Miembro del Staff
Súper Moderador
Miembro VIP
Registro
31 Ago 2012
Mensajes
2.275
Edad
45
Ubicación
Welcome to Hell!!
Muchas gracias por esta super producción, que para mi es la mejor de las tres, seria bueno tenerla en 1080p.:aplausos::aplausos::aplausos:

Gracias Monstruo R21!!!!:aplausos::aplausos:
 

Usuarios Que Están Viendo Este Tema (Total: 1, Miembros: 0, Invitados: 1)

Quién Leyó Este Tema (Total Miembros: 8)

Arriba