• Este aviso va dirigido a todos los nuevos miembros recien llegados a Club-HD. Les recordamos que la direccion URL de este sitio web es , asi que deben acceder únicamente por esta URL. Sean todos bienvenidos al Club!

Justice League Dark: Apokolips War (2020) 1080p BDRemux Dual Latino-Inglés [Subt. Esp] (Animación. Acción)

Bebesaurio

Novio de Vizard
Miembro del Staff
Moderador
Uploader
Registrado
12 Mar 2018
Mensajes
560
Puntos de reacción
13,475
Puntos
93
Edad
21




SINOPSIS

Culminando seis años de la aventura de "Justice League: War" en 2014, "Justice League Dark: Apokolips War" presenta un planeta Tierra totalmente devastado por el tirano intergaláctico Darkseid en el que los superhéroes apenas han podido hacer frente a la guerra. Los últimos bastiones de guerreros que aún quedan en pie deben reagruparse para crear una estrategia que les permita enfrentarse a Darkseid con el propósito de salvar al planeta y a sus pocos supervivientes. Esta es la guerra que acabará con todas las guerras.




MEDIA INFO


General
Unique ID : 134870382745796240929310092901551036352 (0x657717438691077837CDA5544835D7C0)
Format : Matroska
Format version : Version 4
File size : 11.3 GiB
Duration : 1 h 30 min
Overall bit rate mode : Variable
Overall bit rate : 17.9 Mb/s
Encoded date : UTC 2020-05-12 19:19:04
Writing application : mkvmerge v32.0.0 ('Astral Progressions') 64-bit
Writing library : libebml v1.3.7 + libmatroska v1.5.0

Video
ID : 1
Format : AVC
Format/Info : Advanced Video Codec
Format profile : High@L4.1
Format settings : CABAC / 4 Ref Frames
Format settings, CABAC : Yes
Format settings, Reference frames : 4 frames
Codec ID : V_MPEG4/ISO/AVC
Duration : 1 h 30 min
Bit rate mode : Variable
Bit rate : 14.8 Mb/s
Maximum bit rate : 40.0 Mb/s
Width : 1 920 pixels
Height : 1 080 pixels
Display aspect ratio : 16:9
Frame rate mode : Constant
Frame rate : 23.976 (24000/1001) FPS
Color space : YUV
Chroma subsampling : 4:2:0
Bit depth : 8 bits
Scan type : Progressive
Bits/(Pixel*Frame) : 0.297
Stream size : 9.31 GiB (82%)
Language : English
Default : Yes
Forced : Yes

Audio #1
ID : 2
Format : AC-3
Format/Info : Audio Coding 3
Commercial name : Dolby Digital
Codec ID : A_AC3
Duration : 1 h 30 min
Bit rate mode : Constant
Bit rate : 192 kb/s
Channel(s) : 2 channels
Channel layout : L R
Sampling rate : 48.0 kHz
Frame rate : 31.250 FPS (1536 SPF)
Compression mode : Lossy
Delay relative to video : 5 ms
Stream size : 124 MiB (1%)
Title : Latino 2.0
Language : Spanish
Service kind : Complete Main
Default : Yes
Forced : Yes

Audio #2
ID : 3
Format : AC-3
Format/Info : Audio Coding 3
Commercial name : Dolby Digital
Codec ID : A_AC3
Duration : 1 h 30 min
Bit rate mode : Constant
Bit rate : 640 kb/s
Channel(s) : 6 channels
Channel layout : L R C LFE Ls Rs
Sampling rate : 48.0 kHz
Frame rate : 31.250 FPS (1536 SPF)
Compression mode : Lossy
Stream size : 413 MiB (4%)
Title : Ingles 5.1
Language : English
Service kind : Complete Main
Default : No
Forced : No

Audio #3
ID : 4
Format : DTS XLL
Format/Info : Digital Theater Systems
Commercial name : DTS-HD Master Audio
Codec ID : A_DTS
Duration : 1 h 30 min
Bit rate mode : Variable
Bit rate : 2 320 kb/s
Channel(s) : 6 channels
Channel layout : C L R Ls Rs LFE
Sampling rate : 48.0 kHz
Frame rate : 93.750 FPS (512 SPF)
Bit depth : 16 bits
Compression mode : Lossless
Stream size : 1.46 GiB (13%)
Title : Ingles DTS
Language : English
Default : No
Forced : No

Text #1
ID : 5
Format : UTF-8
Codec ID : S_TEXT/UTF8
Codec ID/Info : UTF-8 Plain Text
Duration : 28 min 14 s
Bit rate : 0 b/s
Count of elements : 5
Stream size : 181 Bytes (0%)
Title : Forzados
Language : Spanish
Default : Yes
Forced : Yes

Text #2
ID : 6
Format : UTF-8
Codec ID : S_TEXT/UTF8
Codec ID/Info : UTF-8 Plain Text
Duration : 1 h 24 min
Bit rate : 49 b/s
Count of elements : 988
Stream size : 30.6 KiB (0%)
Title : Completos
Language : Spanish
Default : No
Forced : No

Text #3
ID : 7
Format : PGS
Muxing mode : zlib
Codec ID : S_HDMV/PGS
Codec ID/Info : Picture based subtitle format used on BDs/HD-DVDs
Duration : 1 h 29 min
Bit rate : 28.4 kb/s
Count of elements : 1978
Stream size : 18.1 MiB (0%)
Title : Completos
Language : Spanish
Default : No
Forced : No

Menu
00:00:00.000 : :Chapter 01
00:08:30.885 : :Chapter 02
00:17:35.095 : :Chapter 03
00:27:06.625 : :Chapter 04
00:35:31.170 : :Chapter 05
00:44:35.673 : :Chapter 06
00:53:16.109 : :Chapter 07
01:01:53.793 : :Chapter 08
01:08:14.340 : :Chapter 09
01:17:38.195 : :Chapter 10
01:26:55.043 : :Chapter 11



CAPTURAS








DESCARGA

ENLACES VIP


Enlaces de Mega y Google Drive solo disponibles para Miembros VIP

Compra tu Membresía VIP y apoya a Club-HD!

ATENCIÓN! Tenemos TODO el material de Club-HD disponible por Mega y Google Drive, enlaces 100% activos y online hasta la fecha

Llévate tus cuentas Mega PRO II gratis con tu membresía VIP!
Todos los posts vivos con links de Mega y Google Drive.
Todo el material de Club-HD desbloqueado y sin publicidad.

Click Aquí para más información.

Enlaces de Mega y Google Drive solo disponibles para Miembros VIP

Compra tu Membresía VIP y apoya a Club-HD!

ATENCIÓN! Tenemos TODO el material de Club-HD disponible por Mega y Google Drive, enlaces 100% activos y online hasta la fecha

Llévate tus cuentas Mega PRO II gratis con tu membresía VIP!
Todos los posts vivos con links de Mega y Google Drive.
Todo el material de Club-HD desbloqueado y sin publicidad.

Click Aquí para más información.


ENLACES FREE


Para ver este contenido oculto, debes dar click en una de las siguientes reacciones: Like Like, Love Love, Haha Haha, Wow Wow, Sad Sad, Angry Angry

Para ver este contenido oculto, debes dar click en una de las siguientes reacciones: Like Like, Love Love, Haha Haha, Wow Wow, Sad Sad, Angry Angry

Para ver este contenido oculto, debes dar click en una de las siguientes reacciones: Like Like, Love Love, Haha Haha, Wow Wow, Sad Sad, Angry Angry

CONTRASEÑA

Código:
www.club-hd.com
 

mx777

Well-known member
Registrado
19 Sep 2012
Mensajes
1,340
Puntos de reacción
38
Puntos
48
Edad
33
Muchas gracias
 

Tr3vor

Well-known member
Colaborador
Registrado
17 May 2018
Mensajes
548
Puntos de reacción
2,940
Puntos
93
Edad
31
No la he visto pero dicen que es una chimba. -.-
 

rachi

Active member
Registrado
21 Jul 2018
Mensajes
619
Puntos de reacción
57
Puntos
28
Gracias por el aporte
 

cripp

Well-known member
Registrado
27 Ago 2012
Mensajes
7,946
Puntos de reacción
451
Puntos
113
Gracias por compartir
 

opv_2011

Active member
Registrado
3 Feb 2016
Mensajes
725
Puntos de reacción
41
Puntos
28
Edad
46




SINOPSIS

Culminando seis años de la aventura de "Justice League: War" en 2014, "Justice League Dark: Apokolips War" presenta un planeta Tierra totalmente devastado por el tirano intergaláctico Darkseid en el que los superhéroes apenas han podido hacer frente a la guerra. Los últimos bastiones de guerreros que aún quedan en pie deben reagruparse para crear una estrategia que les permita enfrentarse a Darkseid con el propósito de salvar al planeta y a sus pocos supervivientes. Esta es la guerra que acabará con todas las guerras.




MEDIA INFO


General
Unique ID : 134870382745796240929310092901551036352 (0x657717438691077837CDA5544835D7C0)
Format : Matroska
Format version : Version 4
File size : 11.3 GiB
Duration : 1 h 30 min
Overall bit rate mode : Variable
Overall bit rate : 17.9 Mb/s
Encoded date : UTC 2020-05-12 19:19:04
Writing application : mkvmerge v32.0.0 ('Astral Progressions') 64-bit
Writing library : libebml v1.3.7 + libmatroska v1.5.0

Video
ID : 1
Format : AVC
Format/Info : Advanced Video Codec
Format profile : High@L4.1
Format settings : CABAC / 4 Ref Frames
Format settings, CABAC : Yes
Format settings, Reference frames : 4 frames
Codec ID : V_MPEG4/ISO/AVC
Duration : 1 h 30 min
Bit rate mode : Variable
Bit rate : 14.8 Mb/s
Maximum bit rate : 40.0 Mb/s
Width : 1 920 pixels
Height : 1 080 pixels
Display aspect ratio : 16:9
Frame rate mode : Constant
Frame rate : 23.976 (24000/1001) FPS
Color space : YUV
Chroma subsampling : 4:2:0
Bit depth : 8 bits
Scan type : Progressive
Bits/(Pixel*Frame) : 0.297
Stream size : 9.31 GiB (82%)
Language : English
Default : Yes
Forced : Yes

Audio #1
ID : 2
Format : AC-3
Format/Info : Audio Coding 3
Commercial name : Dolby Digital
Codec ID : A_AC3
Duration : 1 h 30 min
Bit rate mode : Constant
Bit rate : 192 kb/s
Channel(s) : 2 channels
Channel layout : L R
Sampling rate : 48.0 kHz
Frame rate : 31.250 FPS (1536 SPF)
Compression mode : Lossy
Delay relative to video : 5 ms
Stream size : 124 MiB (1%)
Title : Latino 2.0
Language : Spanish
Service kind : Complete Main
Default : Yes
Forced : Yes

Audio #2
ID : 3
Format : AC-3
Format/Info : Audio Coding 3
Commercial name : Dolby Digital
Codec ID : A_AC3
Duration : 1 h 30 min
Bit rate mode : Constant
Bit rate : 640 kb/s
Channel(s) : 6 channels
Channel layout : L R C LFE Ls Rs
Sampling rate : 48.0 kHz
Frame rate : 31.250 FPS (1536 SPF)
Compression mode : Lossy
Stream size : 413 MiB (4%)
Title : Ingles 5.1
Language : English
Service kind : Complete Main
Default : No
Forced : No

Audio #3
ID : 4
Format : DTS XLL
Format/Info : Digital Theater Systems
Commercial name : DTS-HD Master Audio
Codec ID : A_DTS
Duration : 1 h 30 min
Bit rate mode : Variable
Bit rate : 2 320 kb/s
Channel(s) : 6 channels
Channel layout : C L R Ls Rs LFE
Sampling rate : 48.0 kHz
Frame rate : 93.750 FPS (512 SPF)
Bit depth : 16 bits
Compression mode : Lossless
Stream size : 1.46 GiB (13%)
Title : Ingles DTS
Language : English
Default : No
Forced : No

Text #1
ID : 5
Format : UTF-8
Codec ID : S_TEXT/UTF8
Codec ID/Info : UTF-8 Plain Text
Duration : 28 min 14 s
Bit rate : 0 b/s
Count of elements : 5
Stream size : 181 Bytes (0%)
Title : Forzados
Language : Spanish
Default : Yes
Forced : Yes

Text #2
ID : 6
Format : UTF-8
Codec ID : S_TEXT/UTF8
Codec ID/Info : UTF-8 Plain Text
Duration : 1 h 24 min
Bit rate : 49 b/s
Count of elements : 988
Stream size : 30.6 KiB (0%)
Title : Completos
Language : Spanish
Default : No
Forced : No

Text #3
ID : 7
Format : PGS
Muxing mode : zlib
Codec ID : S_HDMV/PGS
Codec ID/Info : Picture based subtitle format used on BDs/HD-DVDs
Duration : 1 h 29 min
Bit rate : 28.4 kb/s
Count of elements : 1978
Stream size : 18.1 MiB (0%)
Title : Completos
Language : Spanish
Default : No
Forced : No

Menu
00:00:00.000 : :Chapter 01
00:08:30.885 : :Chapter 02
00:17:35.095 : :Chapter 03
00:27:06.625 : :Chapter 04
00:35:31.170 : :Chapter 05
00:44:35.673 : :Chapter 06
00:53:16.109 : :Chapter 07
01:01:53.793 : :Chapter 08
01:08:14.340 : :Chapter 09
01:17:38.195 : :Chapter 10
01:26:55.043 : :Chapter 11



CAPTURAS








DESCARGA

ENLACES VIP


[Hidden content]


[Hidden content]



ENLACES FREE


[Hidden content]


[Hidden content]


[Hidden content]


CONTRASEÑA

Código:
www.club-hd.com
Gracias por esta novedad!
 

vbeltran

Member
Registrado
15 Ago 2017
Mensajes
76
Puntos de reacción
1
Puntos
8
Gracias. Para uploaded falta la parte 3...
 

luisitox

Member
Registrado
6 Sep 2012
Mensajes
72
Puntos de reacción
0
Puntos
6




SINOPSIS

Culminando seis años de la aventura de "Justice League: War" en 2014, "Justice League Dark: Apokolips War" presenta un planeta Tierra totalmente devastado por el tirano intergaláctico Darkseid en el que los superhéroes apenas han podido hacer frente a la guerra. Los últimos bastiones de guerreros que aún quedan en pie deben reagruparse para crear una estrategia que les permita enfrentarse a Darkseid con el propósito de salvar al planeta y a sus pocos supervivientes. Esta es la guerra que acabará con todas las guerras.




MEDIA INFO


General
Unique ID : 134870382745796240929310092901551036352 (0x657717438691077837CDA5544835D7C0)
Format : Matroska
Format version : Version 4
File size : 11.3 GiB
Duration : 1 h 30 min
Overall bit rate mode : Variable
Overall bit rate : 17.9 Mb/s
Encoded date : UTC 2020-05-12 19:19:04
Writing application : mkvmerge v32.0.0 ('Astral Progressions') 64-bit
Writing library : libebml v1.3.7 + libmatroska v1.5.0

Video
ID : 1
Format : AVC
Format/Info : Advanced Video Codec
Format profile : High@L4.1
Format settings : CABAC / 4 Ref Frames
Format settings, CABAC : Yes
Format settings, Reference frames : 4 frames
Codec ID : V_MPEG4/ISO/AVC
Duration : 1 h 30 min
Bit rate mode : Variable
Bit rate : 14.8 Mb/s
Maximum bit rate : 40.0 Mb/s
Width : 1 920 pixels
Height : 1 080 pixels
Display aspect ratio : 16:9
Frame rate mode : Constant
Frame rate : 23.976 (24000/1001) FPS
Color space : YUV
Chroma subsampling : 4:2:0
Bit depth : 8 bits
Scan type : Progressive
Bits/(Pixel*Frame) : 0.297
Stream size : 9.31 GiB (82%)
Language : English
Default : Yes
Forced : Yes

Audio #1
ID : 2
Format : AC-3
Format/Info : Audio Coding 3
Commercial name : Dolby Digital
Codec ID : A_AC3
Duration : 1 h 30 min
Bit rate mode : Constant
Bit rate : 192 kb/s
Channel(s) : 2 channels
Channel layout : L R
Sampling rate : 48.0 kHz
Frame rate : 31.250 FPS (1536 SPF)
Compression mode : Lossy
Delay relative to video : 5 ms
Stream size : 124 MiB (1%)
Title : Latino 2.0
Language : Spanish
Service kind : Complete Main
Default : Yes
Forced : Yes

Audio #2
ID : 3
Format : AC-3
Format/Info : Audio Coding 3
Commercial name : Dolby Digital
Codec ID : A_AC3
Duration : 1 h 30 min
Bit rate mode : Constant
Bit rate : 640 kb/s
Channel(s) : 6 channels
Channel layout : L R C LFE Ls Rs
Sampling rate : 48.0 kHz
Frame rate : 31.250 FPS (1536 SPF)
Compression mode : Lossy
Stream size : 413 MiB (4%)
Title : Ingles 5.1
Language : English
Service kind : Complete Main
Default : No
Forced : No

Audio #3
ID : 4
Format : DTS XLL
Format/Info : Digital Theater Systems
Commercial name : DTS-HD Master Audio
Codec ID : A_DTS
Duration : 1 h 30 min
Bit rate mode : Variable
Bit rate : 2 320 kb/s
Channel(s) : 6 channels
Channel layout : C L R Ls Rs LFE
Sampling rate : 48.0 kHz
Frame rate : 93.750 FPS (512 SPF)
Bit depth : 16 bits
Compression mode : Lossless
Stream size : 1.46 GiB (13%)
Title : Ingles DTS
Language : English
Default : No
Forced : No

Text #1
ID : 5
Format : UTF-8
Codec ID : S_TEXT/UTF8
Codec ID/Info : UTF-8 Plain Text
Duration : 28 min 14 s
Bit rate : 0 b/s
Count of elements : 5
Stream size : 181 Bytes (0%)
Title : Forzados
Language : Spanish
Default : Yes
Forced : Yes

Text #2
ID : 6
Format : UTF-8
Codec ID : S_TEXT/UTF8
Codec ID/Info : UTF-8 Plain Text
Duration : 1 h 24 min
Bit rate : 49 b/s
Count of elements : 988
Stream size : 30.6 KiB (0%)
Title : Completos
Language : Spanish
Default : No
Forced : No

Text #3
ID : 7
Format : PGS
Muxing mode : zlib
Codec ID : S_HDMV/PGS
Codec ID/Info : Picture based subtitle format used on BDs/HD-DVDs
Duration : 1 h 29 min
Bit rate : 28.4 kb/s
Count of elements : 1978
Stream size : 18.1 MiB (0%)
Title : Completos
Language : Spanish
Default : No
Forced : No

Menu
00:00:00.000 : :Chapter 01
00:08:30.885 : :Chapter 02
00:17:35.095 : :Chapter 03
00:27:06.625 : :Chapter 04
00:35:31.170 : :Chapter 05
00:44:35.673 : :Chapter 06
00:53:16.109 : :Chapter 07
01:01:53.793 : :Chapter 08
01:08:14.340 : :Chapter 09
01:17:38.195 : :Chapter 10
01:26:55.043 : :Chapter 11



CAPTURAS








DESCARGA

ENLACES VIP


[Hidden content]


[Hidden content]



ENLACES FREE


[Hidden content]


[Hidden content]


[Hidden content]


CONTRASEÑA

Código:
www.club-hd.com
Muchas gracias por su aporte
 

Usuarios Que Están Viendo Este Tema (Total: 1, Miembros: 0, Invitados: 1)

Arriba