Justice League: The Flashpoint Paradox (2013) 720p BDRip Dual Latino-Inglés [Subt. Esp] (Animación)

Maestro Revolver

Well-known member
Miembro del Staff
Administrador
Registro
9 Ago 2012
Mensajes
3.567








TÍTULO ORIGINAL: Justice League: The Flashpoint Paradox
AÑO: 2013
DURACIÓN: 75 min.
PAÍS: USA
DIRECTOR: Jay Oliva
GUIÓN: James Krieg (Cómic: Geoff Johns, Andy Kubert)
REPARTO: Animation
PRODUCTORA: DC Entertainment / Warner Bros. Animation / Warner Bros. Home Entertainment Group
GÉNERO: Animación. Acción. Ciencia ficción | Superhéroes. Cómic. DC Comics. Animación para adultos
: http://www.imdb.com/title/tt2820466/






Barry Allen despierta en una realidad alternativa, donde descubre que ningun héroe de la Liga de la Justicia existe, a excepción de Batman, Aquaman y Wonder Woman; estos dos últimos tienen una enorme guerra, incluso los Atlantes de Aquaman inundaron Europa y las Amazonas conquistaron Inglaterra.
























La pelicula NO tiene ninguna marca... solo colocamos el nombre de esta web en las capturas






Código:
General
Format                                   : Matroska
Format version                           : Version 2
File size                                : 2.44 GiB
Duration                                 : 1h 21mn
Overall bit rate                         : 4 303 Kbps
Movie name                               : www.club-hd.com
Encoded date                             : UTC 2013-07-21 21:21:08
Writing application                      : mkvmerge v5.7.0 ('The Whirlwind') built on Jul  8 2012 20:08:51
Writing library                          : libebml v1.2.3 + libmatroska v1.3.0

Video
ID                                       : 1
Format                                   : AVC
Format/Info                              : Advanced Video Codec
Format profile                           : High@L4.1
Format settings, CABAC                   : Yes
Format settings, ReFrames                : 9 frames
Codec ID                                 : V_MPEG4/ISO/AVC
Duration                                 : 1h 21mn
Bit rate                                 : 3 193 Kbps
Width                                    : 1 280 pixels
Height                                   : 720 pixels
Display aspect ratio                     : 16:9
Frame rate mode                          : Constant
Frame rate                               : 23.976 fps
Color space                              : YUV
Chroma subsampling                       : 4:2:0
Bit depth                                : 8 bits
Scan type                                : Progressive
Bits/(Pixel*Frame)                       : 0.145
Stream size                              : 1.81 GiB (74%)
Title                                    : www.club-hd.com
Language                                 : English
Default                                  : Yes
Forced                                   : No

Audio #1
ID                                       : 2
Format                                   : AC-3
Format/Info                              : Audio Coding 3
Mode extension                           : CM (complete main)
Format settings, Endianness              : Big
Codec ID                                 : A_AC3
Duration                                 : 1h 21mn
Bit rate mode                            : Constant
Bit rate                                 : 384 Kbps
Channel(s)                               : 6 channels
Channel positions                        : Front: L C R, Side: L R, LFE
Sampling rate                            : 48.0 KHz
Bit depth                                : 16 bits
Compression mode                         : Lossy
Stream size                              : 223 MiB (9%)
Title                                    : www.club-hd.com  >>  Latino AC3 5.1
Language                                 : Spanish
Default                                  : Yes
Forced                                   : No

Audio #2
ID                                       : 3
Format                                   : AC-3
Format/Info                              : Audio Coding 3
Mode extension                           : CM (complete main)
Format settings, Endianness              : Big
Codec ID                                 : A_AC3
Duration                                 : 1h 21mn
Bit rate mode                            : Constant
Bit rate                                 : 640 Kbps
Channel(s)                               : 6 channels
Channel positions                        : Front: L C R, Side: L R, LFE
Sampling rate                            : 48.0 KHz
Bit depth                                : 16 bits
Compression mode                         : Lossy
Stream size                              : 372 MiB (15%)
Title                                    : www.club-hd.com  >>  Inglés AC3 5.1
Language                                 : English
Default                                  : No
Forced                                   : No

Text
ID                                       : 4
Format                                   : UTF-8
Codec ID                                 : S_TEXT/UTF8
Codec ID/Info                            : UTF-8 Plain Text
Language                                 : Spanish
Default                                  : No
Forced                                   : No

Menu
00:00:00.000                             : en:00:00:00.000
00:11:00.159                             : en:00:11:00.159
00:19:52.817                             : en:00:19:52.817
00:29:56.795                             : en:00:29:56.795
00:41:41.916                             : en:00:41:41.916
00:50:18.057                             : en:00:50:18.057
00:59:39.993                             : en:00:59:39.993
01:11:01.466                             : en:01:11:01.466
01:17:52.668                             : en:01:17:52.668








Enlaces de Mega y Google Drive solo disponibles para Miembros VIP

Compra tu Membresía VIP y apoya a Club-HD!

ATENCIÓN! Tenemos TODO el material de Club-HD disponible por Mega y Google Drive, enlaces 100% activos y online hasta la fecha

Llévate tus cuentas Mega PRO III gratis con tu membresía VIP!
Todos los posts vivos con links de Mega y Google Drive.
Todo el material de Club-HD desbloqueado y sin publicidad.

Click Aquí para más información.


Para ver este contenido oculto, debes dar click en una de las siguientes reacciones : Like Like, Love Love, Haha Haha, Wow Wow, Sad Sad, Angry Angry

 
Última edición por un moderador:

shynichi

Active member
Registro
17 Sep 2012
Mensajes
161
Una gran película, ya la vi en dvdrip, pero ahora la vuelvo a ver en HD... muchas gracias...
 

gambetta

New member
Registro
29 Ago 2012
Mensajes
112
Edad
59
habrá posibilidad de conseguir los subtituilos de los extras que vienen en el bluray
.EXTRA1.Short.Feature.A.Flash.in.Time
.EXTRA2.Short.Feature.My.Favorite.Villain
espero que se pueda, muchas gracias
 

Usuarios Que Están Viendo Este Tema (Total: 1, Miembros: 0, Invitados: 1)

Quién Leyó Este Tema (Total Miembros: 2)

Arriba