King Richard (2021) 1080p HMAX WEB-DL Dual Latino-Inglés [Subt.] (Drama | Familia. Biográfico.)

Flaco

Well-known member
Miembro del Staff
Moderador
Uploader
Registro
25 May 2015
Mensajes
648
Reacciones
4.585
Puntos
93
Ubicación
Gargantua

Reputation:









Biopic sobre Richard Williams, un padre inasequible al desaliento que ayudó a criar a dos de las deportistas más extraordinarias de todos los tiempos, dos atletas que acabarían cambiando para siempre el deporte del tenis. Richard tenía una visión muy clara del futuro de sus hijas y sirviéndose de métodos poco convencionales, elaboró un plan que llevaría a Venus y Serena Williams de las calles de Compton, California, al olimpo de deporte convirtiéndolas en iconos legendarios.






Código:
General
Complete name                            : King Richard (2021) 1080p HMAX WEB-DL Dual Latino-Inglés [Subt.].mkv
Format                                   : Matroska
Format version                           : Version 4
File size                                : 9.50 GiB
Duration                                 : 2 h 24 min
Overall bit rate mode                    : Variable
Overall bit rate                         : 9 400 kb/s
Encoded date                             : UTC 2021-11-19 20:21:54
Writing application                      : mkvmerge v61.0.0 ('So') 64-bit
Writing library                          : libebml v1.4.2 + libmatroska v1.6.4

Video
ID                                       : 1
Format                                   : AVC
Format/Info                              : Advanced Video Codec
Format profile                           : High@L4
Format settings                          : CABAC / 4 Ref Frames
Format settings, CABAC                   : Yes
Format settings, Reference frames        : 4 frames
Codec ID                                 : V_MPEG4/ISO/AVC
Duration                                 : 2 h 24 min
Bit rate mode                            : Variable
Bit rate                                 : 8 250 kb/s
Maximum bit rate                         : 12.4 Mb/s
Width                                    : 1 920 pixels
Height                                   : 816 pixels
Display aspect ratio                     : 2.35:1
Frame rate mode                          : Constant
Frame rate                               : 23.976 (24000/1001) FPS
Color space                              : YUV
Chroma subsampling                       : 4:2:0
Bit depth                                : 8 bits
Scan type                                : Progressive
Bits/(Pixel*Frame)                       : 0.220
Stream size                              : 8.33 GiB (88%)
Title                                    : King Richard (2021) 1080p HMAX WEB-DL Dual Latino-Inglés [Subt.]
Writing library                          : x264 core 157 r2965 861cec4
Encoding settings                        : cabac=1 / ref=4 / deblock=1:0:0 / analyse=0x3:0x113 / me=hex / subme=7 / psy=1 / psy_rd=1.00:0.00 / mixed_ref=1 / me_range=16 / chroma_me=1 / trellis=1 / 8x8dct=1 / cqm=0 / deadzone=21,11 / fast_pskip=1 / chroma_qp_offset=-2 / threads=25 / lookahead_threads=4 / sliced_threads=0 / nr=0 / decimate=1 / interlaced=0 / bluray_compat=0 / constrained_intra=0 / bframes=3 / b_pyramid=2 / b_adapt=1 / b_bias=0 / direct=1 / weightb=1 / open_gop=0 / weightp=2 / keyint=96 / keyint_min=96 / scenecut=40 / intra_refresh=0 / rc_lookahead=40 / rc=2pass / mbtree=1 / bitrate=8250 / ratetol=1.0 / qcomp=0.60 / qpmin=0 / qpmax=69 / qpstep=4 / cplxblur=20.0 / qblur=0.5 / vbv_maxrate=12375 / vbv_bufsize=6187 / nal_hrd=vbr / filler=0 / ip_ratio=1.40 / aq=1:1.00
Language                                 : English
Default                                  : Yes
Forced                                   : No
Color range                              : Limited
Color primaries                          : BT.709
Transfer characteristics                 : BT.709
Matrix coefficients                      : BT.709

Audio #1
ID                                       : 2
Format                                   : AC-3
Format/Info                              : Audio Coding 3
Commercial name                          : Dolby Digital
Codec ID                                 : A_AC3
Duration                                 : 2 h 24 min
Bit rate mode                            : Constant
Bit rate                                 : 384 kb/s
Channel(s)                               : 6 channels
Channel layout                           : L R C LFE Ls Rs
Sampling rate                            : 48.0 kHz
Frame rate                               : 31.250 FPS (1536 SPF)
Compression mode                         : Lossy
Stream size                              : 397 MiB (4%)
Title                                    : Español Latino AC3 5.1 - 384 Kbps (HMAX)
Language                                 : Spanish
Service kind                             : Complete Main
Default                                  : Yes
Forced                                   : No

Audio #2
ID                                       : 3
Format                                   : E-AC-3 JOC
Format/Info                              : Enhanced AC-3 with Joint Object Coding
Commercial name                          : Dolby Digital Plus with Dolby Atmos
Codec ID                                 : A_EAC3
Duration                                 : 2 h 24 min
Bit rate mode                            : Constant
Bit rate                                 : 768 kb/s
Channel(s)                               : 6 channels
Channel layout                           : L R C LFE Ls Rs
Sampling rate                            : 48.0 kHz
Frame rate                               : 31.250 FPS (1536 SPF)
Compression mode                         : Lossy
Stream size                              : 795 MiB (8%)
Title                                    : Inglés EAC3 JOC 5.1 - 768 Kbps (HMAX)
Language                                 : English
Service kind                             : Complete Main
Default                                  : No
Forced                                   : No
Complexity index                         : 16
Number of dynamic objects                : 15
Bed channel count                        : 1 channel
Bed channel configuration                : LFE

Text #1
ID                                       : 4
Format                                   : UTF-8
Codec ID                                 : S_TEXT/UTF8
Codec ID/Info                            : UTF-8 Plain Text
Duration                                 : 2 h 17 min
Bit rate                                 : 3 b/s
Count of elements                        : 86
Stream size                              : 3.83 KiB (0%)
Title                                    : Latino Forzado
Language                                 : Spanish
Default                                  : Yes
Forced                                   : No

Text #2
ID                                       : 5
Format                                   : UTF-8
Codec ID                                 : S_TEXT/UTF8
Codec ID/Info                            : UTF-8 Plain Text
Duration                                 : 2 h 23 min
Bit rate                                 : 86 b/s
Count of elements                        : 2753
Stream size                              : 90.8 KiB (0%)
Title                                    : Latino Completo
Language                                 : Spanish
Default                                  : Yes
Forced                                   : No





















Todos los links son Intercambiables!


Enlaces de Mega y Fireload solo disponibles para Miembros VIP

Compra tu Membresía VIP y apoya a Club-HD!

ATENCIÓN! Tenemos TODO el material de Club-HD disponible por Mega y Fireload, enlaces 100% activos y online hasta la fecha

Llévate tus cuentas Mega PRO II gratis con tu membresía VIP!
Todos los posts vivos con links de Mega y Fireload.
Todo el material de Club-HD desbloqueado y sin publicidad.

Click Aquí para más información.

Enlaces de Mega y Fireload solo disponibles para Miembros VIP

Compra tu Membresía VIP y apoya a Club-HD!

ATENCIÓN! Tenemos TODO el material de Club-HD disponible por Mega y Fireload, enlaces 100% activos y online hasta la fecha

Llévate tus cuentas Mega PRO II gratis con tu membresía VIP!
Todos los posts vivos con links de Mega y Fireload.
Todo el material de Club-HD desbloqueado y sin publicidad.

Click Aquí para más información.

Para ver este contenido oculto, debes dar click en una de las siguientes reacciones : Like Like, Love Love, Haha Haha, Wow Wow, Sad Sad, Angry Angry
 
Última edición:

georgetwp

Well-known member
Registro
27 Ago 2012
Mensajes
1.768
Reacciones
367
Puntos
83
Edad
32

Reputation:

Excelente vamos a ver que tal la historia de las chicas
 

clasaase

Clasaase
Miembro del Staff
Moderador
Colaborador
Miembro VIP
Registro
3 Sep 2012
Mensajes
2.467
Reacciones
1.007
Puntos
113
Ubicación
Chile

Reputation:

Que bueno que publiquen ¡PELÍCULAS! Gracias Master Flaco por darle categoría al Club.
De las poquísimas que he ido guardando últimamente.
 
Última edición:

Usuarios Que Están Viendo Este Tema (Total: 1, Miembros: 0, Invitados: 1)

Arriba