Kingdom of Heaven (2005) Theatrical Cut m-720p BDRip Dual Latino-Inglés [Subt. Esp] (Aventura. Romance)

Maestro Revolver

Miembro del Staff
Administrador
Registro
9 Ago 2012
Mensajes
3.157








TÍTULO ORIGINAL: Kingdom of Heaven
AÑO: 2005
DURACIÓN: 144 min.
PAÍS: Reino Unido
DIRECTOR: Ridley Scott
GUIÓN: William Monahan
REPARTO: Orlando Bloom, Eva Green, Jeremy Irons, Liam Neeson, David Thewlis, Brendan Gleeson, Edward Norton, Michael Sheen, Marton Csokas, Ghassan Massoud, Alexander Siddig, Velibor Topic, Kevin McKidd, Khaled Nabawy, Iain Glen, Jon Finch, Robert Pugh, Ulrich Thomsen, Giannina Facio, Nathalie Cox, Bronson Webb, Nikolaj Coster-Waldau, Alex O'Dogherty
PRODUCTORA: Coproducción GB-USA-España-Alemania; 20th Century Fox / Scott Free Production
GÉNERO: Aventuras. Romance | Edad Media. Siglo XII. Cine épico
: http://www.imdb.com/title/tt0320661/






Siglo XII, las Cruzadas. Godofredo de Ibelin (Liam Neeson), caballero respetado por el rey de Jerusalén y comprometido con el mantenimiento de la paz en Tierra Santa, emprende la búsqueda de su hijo ilegítimo Balian (Orlando Bloom), joven herrero francés que llora la pérdida de su mujer y su hijo. Godofredo convence a su hijo para que lo acompañe en su misión. Tras la muerte de su padre, Balian hereda sus tierras y su título de caballero en Jerusalén, ciudad en la que cristianos, musulmanes y judíos han conseguido convivir pacíficamente durante la tregua entre la Segunda y la Tercera Cruzada. Con una fidelidad inquebrantable, Balian sirve a su rey y, además, se enamora de la princesa Sibylla (Eva Green), la enigmática hermana del monarca.




































La pelicula NO tiene ninguna marca... solo colocamos el nombre de esta web en las capturas






Código:
General
Format                                   : Matroska
Format version                           : Version 2
File size                                : 3.78 GiB
Duration                                 : 2h 24mn
Overall bit rate                         : 3 746 Kbps
Movie name                               : www.club-hd.com
Encoded date                             : UTC 2013-07-12 18:54:03
Writing application                      : mkvmerge v5.7.0 ('The Whirlwind') built on Jul  8 2012 20:08:51
Writing library                          : libebml v1.2.3 + libmatroska v1.3.0

Video
ID                                       : 1
Format                                   : AVC
Format/Info                              : Advanced Video Codec
Format profile                           : High@L4.1
Format settings, CABAC                   : Yes
Format settings, ReFrames                : 9 frames
Codec ID                                 : V_MPEG4/ISO/AVC
Duration                                 : 2h 24mn
Bit rate                                 : 2 720 Kbps
Width                                    : 1 280 pixels
Height                                   : 546 pixels
Display aspect ratio                     : 2.35:1
Frame rate mode                          : Constant
Frame rate                               : 23.976 fps
Color space                              : YUV
Chroma subsampling                       : 4:2:0
Bit depth                                : 8 bits
Scan type                                : Progressive
Bits/(Pixel*Frame)                       : 0.162
Stream size                              : 2.67 GiB (71%)
Title                                    : www.club-hd.com
Writing library                          : x264 core 114 r1913 5fd3dce
Language                                 : English
Default                                  : Yes
Forced                                   : No

Audio #1
ID                                       : 2
Format                                   : AC-3
Format/Info                              : Audio Coding 3
Mode extension                           : CM (complete main)
Format settings, Endianness              : Big
Codec ID                                 : A_AC3
Duration                                 : 2h 24mn
Bit rate mode                            : Constant
Bit rate                                 : 384 Kbps
Channel(s)                               : 6 channels
Channel positions                        : Front: L C R, Side: L R, LFE
Sampling rate                            : 48.0 KHz
Bit depth                                : 16 bits
Compression mode                         : Lossy
Stream size                              : 397 MiB (10%)
Title                                    : www.club-hd.com  >>  Latino
Language                                 : Spanish
Default                                  : Yes
Forced                                   : No

Audio #2
ID                                       : 3
Format                                   : AC-3
Format/Info                              : Audio Coding 3
Mode extension                           : CM (complete main)
Format settings, Endianness              : Big
Codec ID                                 : A_AC3
Duration                                 : 2h 24mn
Bit rate mode                            : Constant
Bit rate                                 : 640 Kbps
Channel(s)                               : 6 channels
Channel positions                        : Front: L C R, Side: L R, LFE
Sampling rate                            : 48.0 KHz
Bit depth                                : 16 bits
Compression mode                         : Lossy
Stream size                              : 662 MiB (17%)
Title                                    : www.club-hd.com  >>  Inglés
Language                                 : English
Default                                  : No
Forced                                   : No

Text
ID                                       : 4
Format                                   : UTF-8
Codec ID                                 : S_TEXT/UTF8
Codec ID/Info                            : UTF-8 Plain Text
Language                                 : Spanish
Default                                  : No
Forced                                   : No

Menu
00:00:00.000                             : en:00:00:00.000
00:03:34.548                             : en:00:03:34.548
00:08:35.181                             : en:00:08:35.181
00:10:32.966                             : en:00:10:32.966
00:11:58.176                             : en:00:11:58.176
00:13:33.062                             : en:00:13:33.062
00:19:05.770                             : en:00:19:05.770
00:20:22.847                             : en:00:20:22.847
00:22:38.732                             : en:00:22:38.732
00:24:09.740                             : en:00:24:09.740
00:26:51.109                             : en:00:26:51.109
00:29:34.773                             : en:00:29:34.773
00:33:17.329                             : en:00:33:17.329
00:36:29.521                             : en:00:36:29.521
00:40:32.597                             : en:00:40:32.597
00:44:21.742                             : en:00:44:21.742
00:47:01.235                             : en:00:47:01.235
00:49:22.501                             : en:00:49:22.501
00:52:48.916                             : en:00:52:48.916
00:56:24.006                             : en:00:56:24.006
00:58:12.531                             : en:00:58:12.531
01:02:38.630                             : en:01:02:38.630
01:07:38.471                             : en:01:07:38.471
01:08:52.879                             : en:01:08:52.879
01:12:11.494                             : en:01:12:11.494
01:14:52.154                             : en:01:14:52.154
01:16:50.397                             : en:01:16:50.397
01:21:21.043                             : en:01:21:21.043
01:23:50.692                             : en:01:23:50.692
01:26:46.326                             : en:01:26:46.326
01:29:56.891                             : en:01:29:56.891
01:33:28.436                             : en:01:33:28.436
01:35:09.996                             : en:01:35:09.996
01:37:17.123                             : en:01:37:17.123
01:39:04.981                             : en:01:39:04.981
01:42:52.041                             : en:01:42:52.041
01:44:58.959                             : en:01:44:58.959
01:48:54.737                             : en:01:48:54.737
01:54:58.683                             : en:01:54:58.683
01:58:56.755                             : en:01:58:56.755
02:01:05.425                             : en:02:01:05.425
02:04:12.320                             : en:02:04:12.320
02:09:30.680                             : en:02:09:30.680
02:11:16.952                             : en:02:11:16.952
02:12:33.904                             : en:02:12:33.904
02:15:36.295                             : en:02:15:36.295








Enlaces de Mega y Google Drive solo disponibles para Miembros VIP

Compra tu Membresía VIP y apoya a Club-HD!

ATENCIÓN! Tenemos TODO el material de Club-HD disponible por Mega y Google Drive, enlaces 100% activos y online hasta la fecha

Llévate tus cuentas Mega PRO III gratis con tu membresía VIP!
Todos los posts vivos con links de Mega y Google Drive.
Todo el material de Club-HD desbloqueado y sin publicidad.

Click Aquí para más información.




Enlaces de Mega y Google Drive solo disponibles para Miembros VIP

Compra tu Membresía VIP y apoya a Club-HD!

ATENCIÓN! Tenemos TODO el material de Club-HD disponible por Mega y Google Drive, enlaces 100% activos y online hasta la fecha

Llévate tus cuentas Mega PRO III gratis con tu membresía VIP!
Todos los posts vivos con links de Mega y Google Drive.
Todo el material de Club-HD desbloqueado y sin publicidad.

Click Aquí para más información.



Para ver este contenido oculto, debes dar click en una de las siguientes reacciones : Like Like, Love Love, Haha Haha, Wow Wow, Sad Sad, Angry Angry




Para ver este contenido oculto, debes dar click en una de las siguientes reacciones : Like Like, Love Love, Haha Haha, Wow Wow, Sad Sad, Angry Angry
 
Última edición por un moderador:

Usuarios Que Están Viendo Este Tema (Total: 1, Miembros: 0, Invitados: 1)

Quién Leyó Este Tema (Total Miembros: 6)

Arriba