Kung Fu Hustle (2004) 720p Dual Latino-Chino [Subt. Esp] (Acción. Comedia)

Maestro Revolver

Well-known member
Miembro del Staff
Administrador
Registro
9 Ago 2012
Mensajes
3.569
Reacciones
59.480
Puntos
113

Reputation:









TÍTULO ORIGINAL: Gong fu (Kung Fu Hustle)
AÑO: 2004
DURACIÓN: 95 min.
PAÍS: Hong Kong
DIRECTOR: Stephen Chow
GUIÓN: Stephen Chow, Xin Huo, Chan Man Keung, Tsang Kan Cheong
REPARTO: Stephen Chow, Feng Xiaogang, Yuen Wah, Dong Zhi Hua, Kwok Kwun Chan (AKA Danny Chan), Lam Chi Chung, Leung Siu-Lung, Yuen Qiu, Tin Kai Man, Huang Shengyi, Lam Suet
PRODUCTORA: Coproducción China / Hong Kong
GÉNERO: Acción. Comedia | Artes marciales
: http://www.imdb.com/title/tt0373074/

PREMIOS: 2005: Nominada al Globo de Oro: Mejor película extranjera
2005: Premios BAFTA: Nominada a mejor película de habla no inglesa
2005: 6 premios del Cine de Hong Kong, incluyendo película, actor (Yuen), sonido
2006: Nominada en los Premios MTV: Mejor lucha





La historia se sitúa durante el caos pre-revolucionario de los años 40 en China. Sing (Stephen Chow) es un delincuente con poca suerte decidido a entrar en el Axe Gang, uno de los clanes mafiosos más importantes de China. Para lograrlo, Sing pretende sacar dinero de los vecinos de un bloque de casas, pero pronto descubre que éstos no son lo que parecen. La banda Axe Gang acude a la zona y una serie de sucesos lleva hasta la confrontación final entre los vecinos y los delincuentes.
























La pelicula NO tiene ninguna marca... solo colocamos el nombre de esta web en las capturas






Código:
General
Format                                   : Matroska
Format version                           : Version 2
File size                                : 4.47 GiB
Duration                                 : 1h 39mn
Overall bit rate                         : 6 434 Kbps
Movie name                               : www.club-hd.com
Encoded date                             : UTC 2012-11-25 15:33:51
Writing application                      : mkvmerge v5.7.0 ('The Whirlwind') built on Jul  8 2012 20:08:51
Writing library                          : libebml v1.2.3 + libmatroska v1.3.0
Attachment                               : Yes / Yes / Yes

Video
ID                                       : 1
Format                                   : AVC
Format/Info                              : Advanced Video Codec
Format profile                           : High@L5.1
Format settings, CABAC                   : Yes
Format settings, ReFrames                : 9 frames
Codec ID                                 : V_MPEG4/ISO/AVC
Duration                                 : 1h 39mn
Bit rate                                 : 5 535 Kbps
Width                                    : 1 280 pixels
Height                                   : 536 pixels
Display aspect ratio                     : 2.40:1
Frame rate mode                          : Constant
Frame rate                               : 23.976 fps
Color space                              : YUV
Chroma subsampling                       : 4:2:0
Bit depth                                : 8 bits
Scan type                                : Progressive
Bits/(Pixel*Frame)                       : 0.336
Stream size                              : 3.76 GiB (84%)
Title                                    : www.club-hd.com
Writing library                          : x264 core 54 svn-635M
Language                                 : Chinese
Default                                  : Yes
Forced                                   : No

Audio #1
ID                                       : 2
Format                                   : AC-3
Format/Info                              : Audio Coding 3
Mode extension                           : CM (complete main)
Format settings, Endianness              : Big
Codec ID                                 : A_AC3
Duration                                 : 1h 39mn
Bit rate mode                            : Constant
Bit rate                                 : 448 Kbps
Channel(s)                               : 6 channels
Channel positions                        : Front: L C R, Side: L R, LFE
Sampling rate                            : 48.0 KHz
Bit depth                                : 16 bits
Compression mode                         : Lossy
Stream size                              : 319 MiB (7%)
Title                                    : www.club-hd.com  >>  Latino
Language                                 : Spanish
Default                                  : Yes
Forced                                   : No

Audio #2
ID                                       : 3
Format                                   : AC-3
Format/Info                              : Audio Coding 3
Mode extension                           : CM (complete main)
Format settings, Endianness              : Big
Codec ID                                 : A_AC3
Duration                                 : 1h 39mn
Bit rate mode                            : Constant
Bit rate                                 : 448 Kbps
Channel(s)                               : 6 channels
Channel positions                        : Front: L C R, Side: L R, LFE
Sampling rate                            : 48.0 KHz
Bit depth                                : 16 bits
Compression mode                         : Lossy
Stream size                              : 319 MiB (7%)
Title                                    : www.club-hd.com  >>  Chino (Cantonés)
Language                                 : Chinese
Default                                  : No
Forced                                   : No

Text
ID                                       : 4
Format                                   : UTF-8
Codec ID                                 : S_TEXT/UTF8
Codec ID/Info                            : UTF-8 Plain Text
Language                                 : Spanish
Default                                  : No
Forced                                   : No










Enlaces de Mega y Fireload solo disponibles para Miembros VIP

Compra tu Membresía VIP y apoya a Club-HD!

ATENCIÓN! Tenemos TODO el material de Club-HD disponible por Mega y Fireload, enlaces 100% activos y online hasta la fecha

Llévate tus cuentas Mega PRO II gratis con tu membresía VIP!
Todos los posts vivos con links de Mega y Fireload.
Todo el material de Club-HD desbloqueado y sin publicidad.

Click Aquí para más información.




Enlaces de Mega y Fireload solo disponibles para Miembros VIP

Compra tu Membresía VIP y apoya a Club-HD!

ATENCIÓN! Tenemos TODO el material de Club-HD disponible por Mega y Fireload, enlaces 100% activos y online hasta la fecha

Llévate tus cuentas Mega PRO II gratis con tu membresía VIP!
Todos los posts vivos con links de Mega y Fireload.
Todo el material de Club-HD desbloqueado y sin publicidad.

Click Aquí para más información.



Para ver este contenido oculto, debes dar click en una de las siguientes reacciones : Like Like, Love Love, Haha Haha, Wow Wow, Sad Sad, Angry Angry

 
Última edición:

MEGAREI

New member
Registro
28 Ago 2012
Mensajes
77
Reacciones
1
Puntos
0

Reputation:

La vi ase un buen tiempo, es muy genial.

Gracias!
 

mar_cris

Member
Registro
3 Sep 2012
Mensajes
56
Reacciones
1
Puntos
8

Reputation:

Muchisimas gracias Revolver21, es otra grandiosa película. La esperaba, muchas gracias Club-HD...
 

Usuarios Que Están Viendo Este Tema (Total: 1, Miembros: 0, Invitados: 1)

Arriba