• Este aviso va dirigido a todos los nuevos miembros recien llegados a Club-HD. Les recordamos que la direccion URL de este sitio web es , asi que deben acceder únicamente por esta URL. Sean todos bienvenidos al Club!

Kung Pow: Enter the Fist (2002) 1080p AMZN WEB-DL Dual Latino-Inglés [Subt. Esp] (Acción. Comedia)

Dante Inferno

🔥Dante Inferno🔥
Miembro del Staff
Moderador
Uploader
Registrado
24 May 2016
Mensajes
575
Puntos de reacción
11,172
Puntos
93
Ubicación
Argentina
Sitio web
club-hd.com




Otros títulos: El maestro de la kung fusión | A puñetazo limpio | Elegido para el desastre


SINOPSIS

Un joven llamado "El Elegido" pretende vengar la muerte de sus padres, quienes fueron asesinados por una leyenda del Kung Fu llamado "El Maestro Dolor".
Contiene escenas del film "El tigre y los puños de grulla" de 1976. (FILMAFFINITY)

MÁS INFORMACIÓN




TRAILER



CAPTURAS




















MEDIAINFO

Código:
General
Complete name                            : Kung Pow Enter the Fist (2002) 1080p AMZN WEB-DL Dual Latino-Inglés [Subt. Esp].mkv
Format                                   : Matroska
Format version                           : Version 4
File size                                : 7.86 GiB
Duration                                 : 1 h 21 min
Overall bit rate mode                    : Variable
Overall bit rate                         : 13.8 Mb/s
Movie name                               : Kung Pow: Enter the Fist (2002) 1080p AMZN WEB-DL Dual Latino-Inglés [Subt. Esp] [www.club-hd.com]
Encoded date                             : UTC 2020-05-17 15:51:54
Writing application                      : mkvmerge v27.0.0 ('Metropolis') 64-bit
Writing library                          : libebml v1.3.6 + libmatroska v1.4.9

Video
ID                                       : 1
Format                                   : AVC
Format/Info                              : Advanced Video Codec
Format profile                           : High@L4
Format settings                          : CABAC / 4 Ref Frames
Format settings, CABAC                   : Yes
Format settings, Reference frames        : 4 frames
Codec ID                                 : V_MPEG4/ISO/AVC
Duration                                 : 1 h 21 min
Bit rate mode                            : Variable
Bit rate                                 : 12.9 Mb/s
Maximum bit rate                         : 15.0 Mb/s
Width                                    : 1 920 pixels
Height                                   : 1 080 pixels
Display aspect ratio                     : 16:9
Frame rate mode                          : Constant
Frame rate                               : 23.976 (24000/1001) FPS
Color space                              : YUV
Chroma subsampling                       : 4:2:0
Bit depth                                : 8 bits
Scan type                                : Progressive
Bits/(Pixel*Frame)                       : 0.260
Stream size                              : 7.38 GiB (94%)
Title                                    : Kung Pow: Enter the Fist (2002) 1080p AMZN WEB-DL Dual Latino-Inglés [Subt. Esp]
Language                                 : English
Default                                  : Yes
Forced                                   : No
Color range                              : Limited
Color primaries                          : BT.709
Transfer characteristics                 : BT.709
Matrix coefficients                      : BT.709

Audio #1
ID                                       : 2
Format                                   : AC-3
Format/Info                              : Audio Coding 3
Commercial name                          : Dolby Digital
Codec ID                                 : A_AC3
Duration                                 : 1 h 21 min
Bit rate mode                            : Constant
Bit rate                                 : 192 kb/s
Channel(s)                               : 2 channels
Channel layout                           : L R
Sampling rate                            : 48.0 kHz
Frame rate                               : 31.250 FPS (1536 SPF)
Compression mode                         : Lossy
Stream size                              : 112 MiB (1%)
Title                                    : Español Latino
Language                                 : Spanish
Service kind                             : Complete Main
Default                                  : Yes
Forced                                   : No

Audio #2
ID                                       : 3
Format                                   : E-AC-3
Format/Info                              : Enhanced AC-3
Commercial name                          : Dolby Digital Plus
Codec ID                                 : A_EAC3
Duration                                 : 1 h 21 min
Bit rate mode                            : Constant
Bit rate                                 : 640 kb/s
Channel(s)                               : 6 channels
Channel layout                           : L R C LFE Ls Rs
Sampling rate                            : 48.0 kHz
Frame rate                               : 31.250 FPS (1536 SPF)
Compression mode                         : Lossy
Stream size                              : 374 MiB (5%)
Title                                    : Inglés
Language                                 : English
Service kind                             : Complete Main
Default                                  : No
Forced                                   : No

Text #1
ID                                       : 4
Format                                   : UTF-8
Codec ID                                 : S_TEXT/UTF8
Codec ID/Info                            : UTF-8 Plain Text
Duration                                 : 1 h 21 min
Bit rate                                 : 37 b/s
Count of elements                        : 707
Stream size                              : 22.2 KiB (0%)
Title                                    : Subtítulos Español
Language                                 : Spanish
Default                                  : No
Forced                                   : No

Text #2
ID                                       : 5
Format                                   : UTF-8
Codec ID                                 : S_TEXT/UTF8
Codec ID/Info                            : UTF-8 Plain Text
Duration                                 : 30 s 719 ms
Bit rate                                 : 58 b/s
Count of elements                        : 4
Stream size                              : 225 Bytes (0%)
Title                                    : Subtítulos Español Forzados
Language                                 : Spanish
Default                                  : Yes
Forced                                   : No

Menu
00:00:00.000                             : en:Scene 1
00:00:23.000                             : en:Scene 2
00:02:05.000                             : en:Scene 3
00:06:05.000                             : en:Scene 4
00:09:22.000                             : en:Scene 5
00:12:40.000                             : en:Scene 6
00:16:09.000                             : en:Scene 7
00:18:28.000                             : en:Scene 8
00:19:43.000                             : en:Scene 9
00:21:17.000                             : en:Scene 10
00:22:57.000                             : en:Scene 11
00:25:58.000                             : en:Scene 12
00:28:11.000                             : en:Scene 13
00:30:56.000                             : en:Scene 14
00:33:01.000                             : en:Scene 15
00:37:14.000                             : en:Scene 16
00:39:45.000                             : en:Scene 17
00:43:58.000                             : en:Scene 18
00:46:06.000                             : en:Scene 19
00:47:58.000                             : en:Scene 20
00:50:28.000                             : en:Scene 21
00:52:08.000                             : en:Scene 22
00:53:28.000                             : en:Scene 23
00:53:58.000                             : en:Scene 24
00:57:47.000                             : en:Scene 25
01:01:33.000                             : en:Scene 26
01:03:47.000                             : en:Scene 27
01:06:04.000                             : en:Scene 28
01:12:50.000                             : en:Scene 29
01:13:50.000                             : en:Scene 30
01:20:49.000                             : en:Scene 31

Un agradecimiento muy especial a nuestro amigo gotas por brindarnos este audio Latino de excelente calidad.

Descarga sólo el audio Latino de este aporte, aquí.




CONTRASEÑA



DESCARGAR

Todos los links son Intercambiables




Enlaces de Mega y Google Drive solo disponibles para Miembros VIP

Compra tu Membresía VIP y apoya a Club-HD!

ATENCIÓN! Tenemos TODO el material de Club-HD disponible por Mega y Google Drive, enlaces 100% activos y online hasta la fecha

Llévate tus cuentas Mega PRO II gratis con tu membresía VIP!
Todos los posts vivos con links de Mega y Google Drive.
Todo el material de Club-HD desbloqueado y sin publicidad.

Click Aquí para más información.



Enlaces de Mega y Google Drive solo disponibles para Miembros VIP

Compra tu Membresía VIP y apoya a Club-HD!

ATENCIÓN! Tenemos TODO el material de Club-HD disponible por Mega y Google Drive, enlaces 100% activos y online hasta la fecha

Llévate tus cuentas Mega PRO II gratis con tu membresía VIP!
Todos los posts vivos con links de Mega y Google Drive.
Todo el material de Club-HD desbloqueado y sin publicidad.

Click Aquí para más información.



Para ver este contenido oculto, debes dar click en una de las siguientes reacciones: Like Like, Love Love, Haha Haha, Wow Wow, Sad Sad, Angry Angry



Para ver este contenido oculto, debes dar click en una de las siguientes reacciones: Like Like, Love Love, Haha Haha, Wow Wow, Sad Sad, Angry Angry



Para ver este contenido oculto, debes dar click en una de las siguientes reacciones: Like Like, Love Love, Haha Haha, Wow Wow, Sad Sad, Angry Angry
 

FUNKSW

Active member
Miembro VIP
Registrado
12 Dic 2015
Mensajes
362
Puntos de reacción
156
Puntos
43
Edad
42
Jajajaja, ni el covid-19 me va a matar como ésta película de las carcajadas explosivas que me voy a lanzar. Me mataron de risa. Gracias por tan tremendo aporte loco :LOL:
 

Dante Inferno

🔥Dante Inferno🔥
Miembro del Staff
Moderador
Uploader
Registrado
24 May 2016
Mensajes
575
Puntos de reacción
11,172
Puntos
93
Ubicación
Argentina
Sitio web
club-hd.com
Jajajaja, ni el covid-19 me va a matar como ésta película de las carcajadas explosivas que me voy a lanzar. Me mataron de risa. Gracias por tan tremendo aporte loco :LOL:
Es una peli la cual no podes no reirte, primero empezando por las traducciones que estan mal jajaja y despues toda la pelicula 🤣 es un clasico :ROFLMAO: :love:
 

Usuarios Que Están Viendo Este Tema (Total: 1, Miembros: 0, Invitados: 1)

Arriba