La Flor De Mi Secreto (1995) 720p BDRip Audio Español (Drama)

Max

Admin
Miembro del Staff
Administrador
Registro
8 Ago 2012
Mensajes
5.585
Reacciones
23.738
Puntos
113
Ubicación
Disco C

Reputation:





TÍTULO ORIGINAL: La flor de mi secreto
AÑO: 1995
DURACIÓN: 98 min.
PAÍS: España
DIRECTOR: Pedro Almodóvar
GUIÓN: Pedro Almodóvar
MÚSICA: Alberto Iglesias
FOTOGRAFÍA: Affonso Beato
REPARTO: Marisa Paredes, Imanol Arias, Juan Echanove, Carmen Elías, Rossy de Palma, Chus Lampreave, Kiti Manver, Jordi Mollà, Nancho Novo, Joaquín Cortés
PRODUCTORA: El Deseo S.A.
GÉNERO: Drama | Melodrama

http://www.imdb.com/title/tt0113083/?ref_=fn_al_tt_1






Leo Macías es una escritora de novela rosa que se oculta tras el seudónimo de Amanda Gris. Obligada por contrato a entregar tres novelas al año, Leo lleva meses incumpliéndolo; en vez de novela rosa le sale negra. Y todo porque su marido Paco, que es militar, está participando en una misión de paz en Bosnia. Antes de su partida, la pareja vivía una de sus peores crisis. El aplazamiento de la solución a sus problemas matrimoniales provoca en Leo una fragilidad y una inseguridad que invade todos los aspectos de su vida. El amor de Paco ha muerto, pero ella lo defiende ciegamente y se aferra a cualquier esperanza, por absurda que sea.































Código:
General
Complete name                            : La Flor De Mi Secreto (1995) 720p BDRip Audio Español.mkv
Format                                   : Matroska
Format version                           : Version 4 / Version 2
File size                                : 3.42 GiB
Duration                                 : 1h 45mn
Overall bit rate                         : 4 640 Kbps
Movie name                               : www.club-hd.com --> La Flor De Mi Secreto (1995) 720p BDRip Audio Español
Encoded date                             : UTC 2010-02-22 21:41:31
Writing application                      : mkvmerge v5.9.0 ('On The Loose') built on Dec  9 2012 15:37:01
Writing library                          : libebml v1.3.0 + libmatroska v1.4.0

Video
ID                                       : 1
Format                                   : AVC
Format/Info                              : Advanced Video Codec
Format profile                           : High@L4.0
Format settings, CABAC                   : Yes
Format settings, ReFrames                : 7 frames
Codec ID                                 : V_MPEG4/ISO/AVC
Duration                                 : 1h 45mn
Bit rate                                 : 4 000 Kbps
Width                                    : 1 280 pixels
Height                                   : 640 pixels
Display aspect ratio                     : 2.008
Frame rate mode                          : Constant
Frame rate                               : 24.000 fps
Color space                              : YUV
Chroma subsampling                       : 4:2:0
Bit depth                                : 8 bits
Scan type                                : Progressive
Bits/(Pixel*Frame)                       : 0.203
Stream size                              : 2.88 GiB (84%)
Title                                    : www.club-hd.com --> La Flor De Mi Secreto (1995) 720p BDRip Audio Español
Writing library                          : x264 core 120
Encoding settings                        : cabac=1 / ref=8 / deblock=1:-2:-2 / analyse=0x3:0x133 / me=umh / subme=10 / psy=1 / psy_rd=2.00:0.00 / mixed_ref=1 / me_range=32 / chroma_me=1 / trellis=2 / 8x8dct=1 / cqm=0 / deadzone=21,11 / fast_pskip=1 / chroma_qp_offset=-2 / threads=24 / sliced_threads=0 / nr=0 / decimate=1 / interlaced=0 / bluray_compat=0 / constrained_intra=0 / bframes=3 / b_pyramid=1 / b_adapt=1 / b_bias=0 / direct=1 / weightb=1 / open_gop=0 / weightp=2 / keyint=240 / keyint_min=24 / scenecut=40 / intra_refresh=0 / rc_lookahead=50 / rc=2pass / mbtree=1 / bitrate=4000 / ratetol=1.0 / qcomp=0.60 / qpmin=3 / qpmax=69 / qpstep=4 / cplxblur=20.0 / qblur=0.5 / ip_ratio=1.40 / aq=1:1.00
Language                                 : Spanish
Default                                  : Yes
Forced                                   : No
Color primaries                          : BT.709
Transfer characteristics                 : BT.709
Matrix coefficients                      : BT.709

Audio
ID                                       : 2
Format                                   : AC-3
Format/Info                              : Audio Coding 3
Mode extension                           : CM (complete main)
Format settings, Endianness              : Big
Codec ID                                 : A_AC3
Duration                                 : 1h 45mn
Bit rate mode                            : Constant
Bit rate                                 : 640 Kbps
Channel(s)                               : 2 channels
Channel positions                        : Front: L R
Sampling rate                            : 48.0 KHz
Bit depth                                : 16 bits
Compression mode                         : Lossy
Stream size                              : 483 MiB (14%)
Title                                    : La Flor De Mi Secreto (1995) - Español AC3 2.0
Language                                 : Spanish
Default                                  : Yes
Forced                                   : No










Enlaces de Mega y Fireload solo disponibles para Miembros VIP

Compra tu Membresía VIP y apoya a Club-HD!

ATENCIÓN! Tenemos TODO el material de Club-HD disponible por Mega y Fireload, enlaces 100% activos y online hasta la fecha

Llévate tus cuentas Mega PRO II gratis con tu membresía VIP!
Todos los posts vivos con links de Mega y Fireload.
Todo el material de Club-HD desbloqueado y sin publicidad.

Click Aquí para más información.




Enlaces de Mega y Fireload solo disponibles para Miembros VIP

Compra tu Membresía VIP y apoya a Club-HD!

ATENCIÓN! Tenemos TODO el material de Club-HD disponible por Mega y Fireload, enlaces 100% activos y online hasta la fecha

Llévate tus cuentas Mega PRO II gratis con tu membresía VIP!
Todos los posts vivos con links de Mega y Fireload.
Todo el material de Club-HD desbloqueado y sin publicidad.

Click Aquí para más información.



Para ver este contenido oculto, debes dar click en una de las siguientes reacciones : Like Like, Love Love, Haha Haha, Wow Wow, Sad Sad, Angry Angry
 
Última edición por un moderador:

trailblazer 2.0

Well-known member
Miembro del Staff
Súper Moderador
Registro
28 Ago 2012
Mensajes
2.787
Reacciones
1.120
Puntos
113
Ubicación
Ciudad Macross

Reputation:

me encanto la de todo sobre mi madre, seguro que me bajo esta gracias master
 

juniorchup

New member
Registro
29 Ago 2012
Mensajes
135
Reacciones
0
Puntos
0

Reputation:

muchas gracias.... siempre todos tenemos que apoyar el cine independiente mas el latinoamericano... nos falta mucho apesar que hay mejores producciones y guiones que en hollywood no se compara todavia pero no hay nada como el cine latinoamericano.... hay una directora tica que estudio en argentina que quiere en este momento hacer un documental sobre deborah dixon cantante muy buena tica que viniendo de un tico nadie sabe quien es ella aqui y en argentina y en el mundo es grandisima.... apoyemos siempre.... muchas gracias MAX
 

groy

New member
Registro
1 Sep 2012
Mensajes
103
Reacciones
0
Puntos
0

Reputation:

la estaba esperando, como tantas otras de almodovar... muchas gracias!
 

Nosferatu

Well-known member
Súper Moderador
Registro
31 Ago 2012
Mensajes
2.275
Reacciones
1.362
Puntos
113
Edad
44
Ubicación
Welcome to Hell!!

Reputation:

Muchas Gracias por esta versión mas liviana. :Apls: No salen los emoticons aplausos a si que te puse estos.



Gracias Master MAX! :LXR:
 
Última edición:

Usuarios Que Están Viendo Este Tema (Total: 1, Miembros: 0, Invitados: 1)

Arriba