Life of Pi (2012) m-720p Dual Latino-Ingles [Subt. Esp-Ing] (Aventura. Drama)

Maestro Revolver

Well-known member
Miembro del Staff
Administrador
Registro
9 Ago 2012
Mensajes
3.569
Reacciones
59.480
Puntos
113

Reputation:









TÍTULO ORIGINAL: Life of Pi
AÑO: 2012
DURACIÓN: 125 min.
PAÍS: USA
DIRECTOR: Ang Lee
GUIÓN: David Magee (Novela: Yann Martel)
REPARTO: Suraj Sharma, Irrfan Khan, Rafe Spall, Tabu, Adril Hussain, Shravanthi Sainath, Ayush Tandon, Vibish Sivakumar, Gérard Depardieu
PRODUCTORA: Fox 2000 Pictures / Haishang Films
GÉNERO: Aventuras. Drama | Aventuras marinas. Supervivencia. 3-D. Animales
: http://www.imdb.com/title/tt0454876/

PREMIOS: 2012: Oscar: 11 nominaciones, incluyendo Mejor película y director
2012: Globos de Oro: Mejor banda sonora. 3 nomin., incluyendo Mejor película drama
2012: 2 Premios BAFTA: mejor fotografía y efectos visuales. 9 nominaciones
2012: Critics Choice Awards: Mejor fotografía y efectos visuales. 9 nominaciones
2012: Satellite Awards: Mejor guión adaptado y fotografía. 5 nominaciones
2012: American Film Institute: Top 10 - Mejores películas del año
2012: Premios Annie: Mejor animación de personajes en una película no animada. 2 nomin.
2012: Directors Guild of America (DGA): Nominada a Mejor director






Tras un naufragio en medio del océano Pacífico, el joven hindú Pi, hijo de un guarda de zoo que viajaba de la India a Canadá, se encuentra en un bote salvavidas con un único superviviente, un tigre de bengala con quien labrará una emocionante, increíble e inesperada relación.
























La pelicula NO tiene ninguna marca... solo colocamos el nombre de esta web en las capturas






Código:
General
Format                                   : Matroska
Format version                           : Version 2
File size                                : 3.37 GiB
Duration                                 : 2h 6mn
Overall bit rate                         : 3 797 Kbps
Movie name                               : www.club-hd.com
Encoded date                             : UTC 2013-03-01 14:06:09
Writing application                      : mkvmerge v5.7.0 ('The Whirlwind') built on Jul  8 2012 20:08:51
Writing library                          : libebml v1.2.3 + libmatroska v1.3.0

Video
ID                                       : 1
Format                                   : AVC
Format/Info                              : Advanced Video Codec
Format profile                           : High@L4.1
Format settings, CABAC                   : Yes
Format settings, ReFrames                : 9 frames
Codec ID                                 : V_MPEG4/ISO/AVC
Duration                                 : 2h 6mn
Bit rate                                 : 2 902 Kbps
Width                                    : 1 280 pixels
Height                                   : 688 pixels
Display aspect ratio                     : 1.85:1
Frame rate mode                          : Constant
Frame rate                               : 23.976 fps
Color space                              : YUV
Chroma subsampling                       : 4:2:0
Bit depth                                : 8 bits
Scan type                                : Progressive
Bits/(Pixel*Frame)                       : 0.137
Stream size                              : 2.51 GiB (74%)
Title                                    : www.club-hd.com
Writing library                          : x264 core 129 r2245 bc13772
Language                                 : English
Default                                  : Yes
Forced                                   : No

Audio #1
ID                                       : 2
Format                                   : AC-3
Format/Info                              : Audio Coding 3
Mode extension                           : CM (complete main)
Format settings, Endianness              : Big
Codec ID                                 : A_AC3
Duration                                 : 2h 6mn
Bit rate mode                            : Constant
Bit rate                                 : 448 Kbps
Channel(s)                               : 6 channels
Channel positions                        : Front: L C R, Side: L R, LFE
Sampling rate                            : 48.0 KHz
Bit depth                                : 16 bits
Compression mode                         : Lossy
Stream size                              : 407 MiB (12%)
Title                                    : www.club-hd.com  >>  Latino
Language                                 : Spanish
Default                                  : Yes
Forced                                   : No

Audio #2
ID                                       : 3
Format                                   : AC-3
Format/Info                              : Audio Coding 3
Mode extension                           : CM (complete main)
Format settings, Endianness              : Big
Codec ID                                 : A_AC3
Duration                                 : 2h 6mn
Bit rate mode                            : Constant
Bit rate                                 : 448 Kbps
Channel(s)                               : 6 channels
Channel positions                        : Front: L C R, Side: L R, LFE
Sampling rate                            : 48.0 KHz
Bit depth                                : 16 bits
Compression mode                         : Lossy
Stream size                              : 407 MiB (12%)
Title                                    : www.club-hd.com  >>  Inglés
Language                                 : English
Default                                  : No
Forced                                   : No

Text #1
ID                                       : 4
Format                                   : UTF-8
Codec ID                                 : S_TEXT/UTF8
Codec ID/Info                            : UTF-8 Plain Text
Language                                 : Spanish
Default                                  : No
Forced                                   : No

Text #2
ID                                       : 5
Format                                   : UTF-8
Codec ID                                 : S_TEXT/UTF8
Codec ID/Info                            : UTF-8 Plain Text
Language                                 : English
Default                                  : No
Forced                                   : No










Enlaces de Mega y Fireload solo disponibles para Miembros VIP

Compra tu Membresía VIP y apoya a Club-HD!

ATENCIÓN! Tenemos TODO el material de Club-HD disponible por Mega y Fireload, enlaces 100% activos y online hasta la fecha

Llévate tus cuentas Mega PRO II gratis con tu membresía VIP!
Todos los posts vivos con links de Mega y Fireload.
Todo el material de Club-HD desbloqueado y sin publicidad.

Click Aquí para más información.




Enlaces de Mega y Fireload solo disponibles para Miembros VIP

Compra tu Membresía VIP y apoya a Club-HD!

ATENCIÓN! Tenemos TODO el material de Club-HD disponible por Mega y Fireload, enlaces 100% activos y online hasta la fecha

Llévate tus cuentas Mega PRO II gratis con tu membresía VIP!
Todos los posts vivos con links de Mega y Fireload.
Todo el material de Club-HD desbloqueado y sin publicidad.

Click Aquí para más información.



Para ver este contenido oculto, debes dar click en una de las siguientes reacciones : Like Like, Love Love, Haha Haha, Wow Wow, Sad Sad, Angry Angry
 
Última edición:

pablou88

Well-known member
Registro
31 Ago 2012
Mensajes
1.080
Reacciones
68
Puntos
48

Reputation:

muchisimas gracias la estaba esperando en 720p. son los mejores club-hd
 

caprileo

New member
Registro
28 Ago 2012
Mensajes
235
Reacciones
10
Puntos
0

Reputation:

eeeeeeeeeeeeeeh... que bieeen... la otra eran muchos GB para mi internet..jajaja...gracias !!!
 

Joaquin

Member
Registro
1 Sep 2012
Mensajes
161
Reacciones
13
Puntos
18

Reputation:

Gracias, la estaba esperando en 720p, muchas gracias.

A descargar.
 

Bernal

Well-known member
Registro
28 Ago 2012
Mensajes
1.485
Reacciones
241
Puntos
63

Reputation:

lo maximo gracias por subirla en m720
 

deividmetal

Active member
Registro
28 Ago 2012
Mensajes
530
Reacciones
177
Puntos
43
Ubicación
españa

Reputation:

ojala supere a la version webdl q dicen q son los mejores en imagen al ser un ripeo original del video
 

Ezze

Well-known member
Miembro del Staff
Súper Moderador
Registro
28 Ago 2012
Mensajes
1.664
Reacciones
1.795
Puntos
113
Ubicación
En la Torre de Observación

Reputation:

bye Gracias maestro por la pelí!!!! Glorioso aporte... :dplgar: De nuevo... GRACIAS. Saludos guit4r_3
 

Usuarios Que Están Viendo Este Tema (Total: 1, Miembros: 0, Invitados: 1)

Arriba