Looper (2012) m-720p Dual Latino-Inglés [Subt. Esp-Ing] (Ciencia ficción. Thriller. Acción)

Maestro Revolver

Well-known member
Miembro del Staff
Administrador
Registro
9 Ago 2012
Mensajes
3.567








TÍTULO ORIGINAL: Looper
AÑO: 2012
DURACIÓN: 118 min.
PAÍS: USA
DIRECTOR: Rian Johnson
GUIÓN: Rian Johnson
REPARTO: Joseph Gordon-Levitt, Bruce Willis, Emily Blunt, Pierre Gagnon, Paul Dano, Piper Perabo, Jeff Daniels, Garret Dillahunt, Tracie Thoms
PRODUCTORA: Sony / TriStar Pictures / MG Entertainment / Endgame Entertainment / FilmDistrict
GÉNERO: Ciencia ficción. Thriller. Acción | Thriller futurista. Viajes en el tiempo
: http://www.imdb.com/title/tt1276104/

PREMIOS: 2012: Festival de Toronto: Nominada al Premio del Público (Mejor película)
2012: National Board of Review (NBR): 10 mejores films y mejor guión original






Como en 2072 los asesinatos están terminantemente prohibidos, las víctimas son enviadas a través de una máquina del tiempo al pasado (2042), donde los Loopers, un grupo de asesinos a sueldo, se encargan de eliminarlas y deshacerse rápidamente de sus cuerpos. El problema surge cuando Joe (Gordon-Levitt), uno de los Loopers, recibe desde el futuro un encargo muy especial: eliminarse a sí mismo (Bruce Willis).
























La pelicula NO tiene ninguna marca... solo colocamos el nombre de esta web en las capturas






Código:
General
Format                                   : Matroska
Format version                           : Version 2
File size                                : 2.96 GiB
Duration                                 : 1h 58mn
Overall bit rate                         : 3 570 Kbps
Movie name                               : www.club-hd.com
Encoded date                             : UTC 2013-02-18 21:13:23
Writing application                      : mkvmerge v5.7.0 ('The Whirlwind') built on Jul  8 2012 20:08:51
Writing library                          : libebml v1.2.3 + libmatroska v1.3.0

Video
ID                                       : 1
Format                                   : AVC
Format/Info                              : Advanced Video Codec
Format profile                           : High@L4.1
Format settings, CABAC                   : Yes
Format settings, ReFrames                : 9 frames
Codec ID                                 : V_MPEG4/ISO/AVC
Duration                                 : 1h 58mn
Bit rate                                 : 2 735 Kbps
Width                                    : 1 280 pixels
Height                                   : 546 pixels
Display aspect ratio                     : 2.35:1
Frame rate mode                          : Constant
Frame rate                               : 23.976 fps
Color space                              : YUV
Chroma subsampling                       : 4:2:0
Bit depth                                : 8 bits
Scan type                                : Progressive
Bits/(Pixel*Frame)                       : 0.163
Stream size                              : 2.21 GiB (75%)
Title                                    : www.club-hd.com
Writing library                          : x264 core 129 r2230 1cffe9f
Language                                 : English
Default                                  : Yes
Forced                                   : No

Audio #1
ID                                       : 2
Format                                   : AC-3
Format/Info                              : Audio Coding 3
Mode extension                           : CM (complete main)
Format settings, Endianness              : Big
Codec ID                                 : A_AC3
Duration                                 : 1h 58mn
Bit rate mode                            : Constant
Bit rate                                 : 192 Kbps
Channel(s)                               : 2 channels
Channel positions                        : Front: L R
Sampling rate                            : 48.0 KHz
Bit depth                                : 16 bits
Compression mode                         : Lossy
Stream size                              : 163 MiB (5%)
Title                                    : www.club-hd.com  >>  Latino
Language                                 : Spanish
Default                                  : Yes
Forced                                   : No

Audio #2
ID                                       : 3
Format                                   : AC-3
Format/Info                              : Audio Coding 3
Mode extension                           : CM (complete main)
Format settings, Endianness              : Big
Codec ID                                 : A_AC3
Duration                                 : 1h 58mn
Bit rate mode                            : Constant
Bit rate                                 : 640 Kbps
Channel(s)                               : 6 channels
Channel positions                        : Front: L C R, Side: L R, LFE
Sampling rate                            : 48.0 KHz
Bit depth                                : 16 bits
Compression mode                         : Lossy
Stream size                              : 544 MiB (18%)
Title                                    : www.club-hd.com  >>  Inglés
Language                                 : English
Default                                  : No
Forced                                   : No

Text #1
ID                                       : 4
Format                                   : UTF-8
Codec ID                                 : S_TEXT/UTF8
Codec ID/Info                            : UTF-8 Plain Text
Language                                 : Spanish
Default                                  : No
Forced                                   : No

Text #2
ID                                       : 5
Format                                   : UTF-8
Codec ID                                 : S_TEXT/UTF8
Codec ID/Info                            : UTF-8 Plain Text
Language                                 : English
Default                                  : No
Forced                                   : No

Menu
00:00:00.000                             : en:00:00:00.000
00:07:27.447                             : en:00:07:27.447
00:13:31.686                             : en:00:13:31.686
00:21:22.490                             : en:00:21:22.490
00:26:48.106                             : en:00:26:48.106
00:31:51.201                             : en:00:31:51.201
00:41:28.403                             : en:00:41:28.403
00:49:33.429                             : en:00:49:33.429
00:54:10.414                             : en:00:54:10.414
01:00:35.006                             : en:01:00:35.006
01:08:09.919                             : en:01:08:09.919
01:15:23.352                             : en:01:15:23.352
01:23:57.741                             : en:01:23:57.741
01:34:25.869                             : en:01:34:25.869
01:41:04.433                             : en:01:41:04.433
01:46:29.383                             : en:01:46:29.383




Agradecimiento
Hay audios latino que andan dando vuelta por la web que son F4ce_P pero quiero agradecer a Max por quitar el ruido a este audio latino para que sea decente en esta versión m-720p. Te quedo muy bien Max :dplgar:










Enlaces de Mega y Google Drive solo disponibles para Miembros VIP

Compra tu Membresía VIP y apoya a Club-HD!

ATENCIÓN! Tenemos TODO el material de Club-HD disponible por Mega y Google Drive, enlaces 100% activos y online hasta la fecha

Llévate tus cuentas Mega PRO III gratis con tu membresía VIP!
Todos los posts vivos con links de Mega y Google Drive.
Todo el material de Club-HD desbloqueado y sin publicidad.

Click Aquí para más información.




Enlaces de Mega y Google Drive solo disponibles para Miembros VIP

Compra tu Membresía VIP y apoya a Club-HD!

ATENCIÓN! Tenemos TODO el material de Club-HD disponible por Mega y Google Drive, enlaces 100% activos y online hasta la fecha

Llévate tus cuentas Mega PRO III gratis con tu membresía VIP!
Todos los posts vivos con links de Mega y Google Drive.
Todo el material de Club-HD desbloqueado y sin publicidad.

Click Aquí para más información.

Enlaces de Mega y Google Drive solo disponibles para Miembros VIP

Compra tu Membresía VIP y apoya a Club-HD!

ATENCIÓN! Tenemos TODO el material de Club-HD disponible por Mega y Google Drive, enlaces 100% activos y online hasta la fecha

Llévate tus cuentas Mega PRO III gratis con tu membresía VIP!
Todos los posts vivos con links de Mega y Google Drive.
Todo el material de Club-HD desbloqueado y sin publicidad.

Click Aquí para más información.

Para ver este contenido oculto, debes dar click en una de las siguientes reacciones : Like Like, Love Love, Haha Haha, Wow Wow, Sad Sad, Angry Angry

Para ver este contenido oculto, debes dar click en una de las siguientes reacciones : Like Like, Love Love, Haha Haha, Wow Wow, Sad Sad, Angry Angry
 
Última edición por un moderador:

Ezze

Well-known member
Miembro del Staff
Súper Moderador
Miembro VIP
Registro
28 Ago 2012
Mensajes
1.666
Ubicación
En la Torre de Observación
bye Muchas gracias!!! Espere desde hace rato esta peli. Aportazo Rev!!!!Tb_up3 Y grande Max por lo del audio!!! :dplgar:Son dos genios, magos,... No sé Pnsand0 Tal vez son extraterrestes!!!! :D:D:D:D:D Saludos guit4r_3
 

Usuarios Que Están Viendo Este Tema (Total: 1, Miembros: 0, Invitados: 1)

Quién Leyó Este Tema (Total Miembros: 1)

Arriba