• Este aviso va dirigido a todos los nuevos miembros recien llegados a Club-HD. Les recordamos que la direccion URL de este sitio web es , asi que deben acceder únicamente por esta URL. Sean todos bienvenidos al Club!

Lovecraft Country S01E04 (2020) 1080p AMZN WEB-DL Dual Latino-Inglés [Subt. Esp]

Flaco

Well-known member
Miembro del Staff
Moderador
Uploader
Registrado
25 May 2015
Mensajes
603
Puntos de reacción
3,068
Puntos
93
Ubicación
Lima, Perú





Título original: Lovecraft Country (TV Series)
Año: 2020
Duración: 60 min.
País:
Estados Unidos
Dirección: Jordan Peele (Creador), Yann Demange, Daniel Sackheim, Cheryl Dunye, Victoria Mahoney, David Petrarca
Guion: Jordan Peele, Misha Green (Novela: Matt Ruff)
Fotografía: Robert McLachlan, Michael Watson
Reparto: Jonathan Majors, Jurnee Smollett-Bell, Courtney B. Vance, Michael Kenneth Williams, Elizabeth Debicki, Aunjanue Ellis, Wunmi Mosaku, Jamie Neumann, Erica Tazel, Mac Brandt, Abbey Lee
Productora: Distribuida por HBO. Productor: J.J. Abrams, Jordan Peele. Bad Robot, Monkeypaw Productions, Warner Bros. Television
Género: Serie de TV. Thriller. Drama. Terror | Sobrenatural. Años 50. Road Movie. Racismo. Drama sureño

Lovecraft Country (TV Series) (2020)





Atticus Black (Jonathan Majors) comienza un viaje por carretera en los años 50 junto a su amiga Letitia (Jurnee Smollett-Bell) y su tío George (Courtney B. Vance) en busca de su padre desaparecido (Michael Kenneth Williams). El viaje se convertirá en una lucha por la supervivencia, afrontando el racismo de la América blanca así como una serie de monstruos que podrían haber salido de un libro de Lovecraft... Basada en la novela de 2016 de Matt Ruff.​






















Código:
General
Complete name                            : Lovecraft Country (2020) T1 E04 1080p AMZN WEB-DL Dual Latino-Inglés [Subt. Esp].mkv
Format                                   : Matroska
Format version                           : Version 4
File size                                : 2.80 GiB
Duration                                 : 1 h 0 min
Overall bit rate                         : 6 570 kb/s
Encoded date                             : UTC 2020-09-08 18:02:18
Writing application                      : mkvmerge v49.0.0 ('Sick Of Losing Soulmates') 64-bit
Writing library                          : libebml v1.4.0 + libmatroska v1.6.1

Video
ID                                       : 1
Format                                   : AVC
Format/Info                              : Advanced Video Codec
Format profile                           : High@L4
Format settings                          : CABAC / 4 Ref Frames
Format settings, CABAC                   : Yes
Format settings, Reference frames        : 4 frames
Codec ID                                 : V_MPEG4/ISO/AVC
Duration                                 : 1 h 0 min
Bit rate mode                            : Constant
Bit rate                                 : 5 672 kb/s
Nominal bit rate                         : 10 000 kb/s
Width                                    : 1 920 pixels
Height                                   : 1 080 pixels
Display aspect ratio                     : 16:9
Frame rate mode                          : Constant
Frame rate                               : 23.976 (24000/1001) FPS
Color space                              : YUV
Chroma subsampling                       : 4:2:0
Bit depth                                : 8 bits
Scan type                                : Progressive
Bits/(Pixel*Frame)                       : 0.114
Stream size                              : 2.42 GiB (86%)
Title                                    : Lovecraft Country (2020) T1 E04 1080p AMZN WEB-DL Dual Latino-Inglés [Subt. Esp]
Language                                 : English
Default                                  : Yes
Forced                                   : No
Color range                              : Limited
Color primaries                          : BT.709
Transfer characteristics                 : BT.709
Matrix coefficients                      : BT.709

Audio #1
ID                                       : 2
Format                                   : AC-3
Format/Info                              : Audio Coding 3
Commercial name                          : Dolby Digital
Codec ID                                 : A_AC3
Duration                                 : 1 h 0 min
Bit rate mode                            : Constant
Bit rate                                 : 256 kb/s
Channel(s)                               : 2 channels
Channel layout                           : L R
Sampling rate                            : 48.0 kHz
Frame rate                               : 31.250 FPS (1536 SPF)
Compression mode                         : Lossy
Stream size                              : 112 MiB (4%)
Title                                    : Español latino AC3 2.0 - 256 Kbps
Language                                 : Spanish
Service kind                             : Complete Main
Default                                  : Yes
Forced                                   : No

Audio #2
ID                                       : 3
Format                                   : E-AC-3
Format/Info                              : Enhanced AC-3
Commercial name                          : Dolby Digital Plus
Codec ID                                 : A_EAC3
Duration                                 : 1 h 0 min
Bit rate mode                            : Constant
Bit rate                                 : 640 kb/s
Channel(s)                               : 6 channels
Channel layout                           : L R C LFE Ls Rs
Sampling rate                            : 48.0 kHz
Frame rate                               : 31.250 FPS (1536 SPF)
Compression mode                         : Lossy
Stream size                              : 279 MiB (10%)
Title                                    : Inglés EAC3 5.1 - 640 Kbps
Language                                 : English
Service kind                             : Complete Main
Default                                  : No
Forced                                   : No

Text #1
ID                                       : 4
Format                                   : UTF-8
Codec ID                                 : S_TEXT/UTF8
Codec ID/Info                            : UTF-8 Plain Text
Duration                                 : 21 min 5 s
Bit rate                                 : 6 b/s
Count of elements                        : 25
Stream size                              : 962 Bytes (0%)
Title                                    : Subtítulo Español Latino Forzado - SRT
Language                                 : Spanish
Default                                  : Yes
Forced                                   : No

Text #2
ID                                       : 5
Format                                   : UTF-8
Codec ID                                 : S_TEXT/UTF8
Codec ID/Info                            : UTF-8 Plain Text
Duration                                 : 58 min 3 s
Bit rate                                 : 45 b/s
Count of elements                        : 588
Stream size                              : 19.1 KiB (0%)
Title                                    : Subtítulo Español Latino Completo - SRT
Language                                 : Spanish
Default                                  : No
Forced                                   : No






Todos los links son Intercambiables!


Enlaces de Mega y Google Drive solo disponibles para Miembros VIP

Compra tu Membresía VIP y apoya a Club-HD!

ATENCIÓN! Tenemos TODO el material de Club-HD disponible por Mega y Google Drive, enlaces 100% activos y online hasta la fecha

Llévate tus cuentas Mega PRO II gratis con tu membresía VIP!
Todos los posts vivos con links de Mega y Google Drive.
Todo el material de Club-HD desbloqueado y sin publicidad.

Click Aquí para más información.


Disponible
⭐¡VER ONLINE y DESCARGAR 1 LINK!⭐


Enlaces de Mega y Google Drive solo disponibles para Miembros VIP

Compra tu Membresía VIP y apoya a Club-HD!

ATENCIÓN! Tenemos TODO el material de Club-HD disponible por Mega y Google Drive, enlaces 100% activos y online hasta la fecha

Llévate tus cuentas Mega PRO II gratis con tu membresía VIP!
Todos los posts vivos con links de Mega y Google Drive.
Todo el material de Club-HD desbloqueado y sin publicidad.

Click Aquí para más información.

Para ver este contenido oculto, debes dar click en una de las siguientes reacciones: Like Like, Love Love, Haha Haha, Wow Wow, Sad Sad, Angry Angry

Para ver este contenido oculto, debes dar click en una de las siguientes reacciones: Like Like, Love Love, Haha Haha, Wow Wow, Sad Sad, Angry Angry
 

kempes54

Well-known member
Miembro VIP
Registrado
28 Ago 2012
Mensajes
739
Puntos de reacción
317
Puntos
63
Muchas Gracias Flaco!
 

cripp

Well-known member
Registrado
27 Ago 2012
Mensajes
8,196
Puntos de reacción
495
Puntos
113
Gracias por compartir
 

ERRE

Well-known member
Registrado
28 Ago 2012
Mensajes
2,252
Puntos de reacción
177
Puntos
63
Gracias...😄
 

Usuarios Que Están Viendo Este Tema (Total: 1, Miembros: 0, Invitados: 1)

Arriba