Maradona: Sueño Bendito - Season 1 (2021) 1080p AMZN WEB-DL Latino [Subt. Esp] (Serie de TV. Drama)

Brady

The G.O.A.T.
Miembro del Staff
Súper Moderador
Uploader
Registro
1 Jun 2016
Mensajes
3.225
Reacciones
70.045
Puntos
113
Edad
25

Reputation:





Sinopsis
Serie de ficción en la que tres diferentes actores interpretan al argentino Diego Armando Maradona (1960-2020) a lo largo de su vida y prolífica carrera; desde sus humildes comienzos en el barrio bonaerense de Fiorito, partido de Lomas de Zamora, y pasando por su carrera como futbolista en el Barcelona y el Napoli, entre otros acontecimientos destacados de su vida. Además, la serie mostrará su papel clave en la victoria de su selección nacional en el Mundial de Fútbol en México ‘86.


MEDIAINFO
Código:
General
Unique ID                                : 278557647378736313211731699932694707271 (0xD190405DE0F9632C6CB5327DA37DFC47)
Format                                   : Matroska
Format version                           : Version 4
File size                                : 3.82 GiB
Duration                                 : 56 min 47 s
Overall bit rate                         : 9 630 kb/s
Encoded date                             : UTC 2021-10-31 06:41:39
Writing application                      : mkvmerge v49.0.0 ('Sick Of Losing Soulmates') 64-bit
Writing library                          : libebml v1.4.0 + libmatroska v1.6.1
Uploader                                 : Brady
Web                                      : www.club-hd.com

Video
ID                                       : 1
Format                                   : AVC
Format/Info                              : Advanced Video Codec
Format profile                           : High@L4
Format settings                          : CABAC / 4 Ref Frames
Format settings, CABAC                   : Yes
Format settings, Reference frames        : 4 frames
Codec ID                                 : V_MPEG4/ISO/AVC
Duration                                 : 56 min 47 s
Bit rate mode                            : Constant
Bit rate                                 : 8 988 kb/s
Nominal bit rate                         : 10 000 kb/s
Width                                    : 1 920 pixels
Height                                   : 1 080 pixels
Display aspect ratio                     : 16:9
Frame rate mode                          : Constant
Frame rate                               : 23.976 (24000/1001) FPS
Color space                              : YUV
Chroma subsampling                       : 4:2:0
Bit depth                                : 8 bits
Scan type                                : Progressive
Bits/(Pixel*Frame)                       : 0.181
Stream size                              : 3.56 GiB (93%)
Language                                 : Spanish
Default                                  : Yes
Forced                                   : No
Color range                              : Limited
Color primaries                          : BT.709
Transfer characteristics                 : BT.709
Matrix coefficients                      : BT.709

Audio
ID                                       : 2
Format                                   : E-AC-3
Format/Info                              : Enhanced AC-3
Commercial name                          : Dolby Digital Plus
Codec ID                                 : A_EAC3
Duration                                 : 56 min 47 s
Bit rate mode                            : Constant
Bit rate                                 : 640 kb/s
Channel(s)                               : 6 channels
Channel layout                           : L R C LFE Ls Rs
Sampling rate                            : 48.0 kHz
Frame rate                               : 31.250 FPS (1536 SPF)
Compression mode                         : Lossy
Stream size                              : 260 MiB (7%)
Title                                    : Latino
Language                                 : Spanish
Service kind                             : Complete Main
Default                                  : Yes
Forced                                   : No

Text
ID                                       : 3
Format                                   : UTF-8
Codec ID                                 : S_TEXT/UTF8
Codec ID/Info                            : UTF-8 Plain Text
Duration                                 : 54 min 4 s
Bit rate                                 : 76 b/s
Count of elements                        : 907
Stream size                              : 30.5 KiB (0%)
Title                                    : Latino
Language                                 : Spanish
Default                                  : No
Forced                                   : No

CAPTURAS







DESCARGA
Todos los links son Intercambiables!



Enlaces de Mega y Fireload solo disponibles para Miembros VIP

Compra tu Membresía VIP y apoya a Club-HD!

ATENCIÓN! Tenemos TODO el material de Club-HD disponible por Mega y Fireload, enlaces 100% activos y online hasta la fecha

Llévate tus cuentas Mega PRO II gratis con tu membresía VIP!
Todos los posts vivos con links de Mega y Fireload.
Todo el material de Club-HD desbloqueado y sin publicidad.

Click Aquí para más información.


Para ver este contenido oculto, debes dar click en una de las siguientes reacciones : Like Like, Love Love, Haha Haha, Wow Wow, Sad Sad, Angry Angry


Para ver este contenido oculto, debes dar click en una de las siguientes reacciones : Like Like, Love Love, Haha Haha, Wow Wow, Sad Sad, Angry Angry
CONTRASEÑA
Código:
www.club-hd.com
 
Última edición:

mechero

Active member
Registro
16 Nov 2012
Mensajes
812
Reacciones
227
Puntos
43
Edad
47

Reputation:

gracias por el estreno!!!!
 

Max

Admin
Miembro del Staff
Administrador
Registro
8 Ago 2012
Mensajes
5.770
Reacciones
24.078
Puntos
113
Ubicación
Disco C

Reputation:

Que belleza mi querido Bradyyyyyyyyyyyy!!!! 5 ⭐

diego maradona GIF
 

Mate78

Ladron de mi cerebro
Miembro del Staff
Súper Moderador
Registro
27 Ago 2012
Mensajes
1.237
Reacciones
924
Puntos
113

Reputation:

Mil gracias amigo.. A verla de inmediato..
 

cripp

Well-known member
Registro
27 Ago 2012
Mensajes
9.683
Reacciones
845
Puntos
113

Reputation:

Gracias por compartir
 

Usuarios Que Están Viendo Este Tema (Total: 1, Miembros: 0, Invitados: 1)

Arriba