Memento (2000) [10th Anniversary Special Edition] m-720p Dual Latino-Inglés [Subt. Esp-Ing] (Thriller. Intriga)

Maestro Revolver

Well-known member
Miembro del Staff
Administrador
Registro
9 Ago 2012
Mensajes
3.569
Reacciones
59.471
Puntos
113

Reputation:









TÍTULO ORIGINAL: Memento
AÑO: 2000
DURACIÓN: 115 min.
PAÍS: USA
DIRECTOR: Christopher Nolan
GUIÓN: Christopher Nolan (Historia: Jonathan Nolan)
REPARTO: Guy Pearce, Carrie-Anne Moss, Joe Pantoliano, Mark Boone Junior, Stephen Tobolowsky, Harriet Sansom Harris, Jorja Fox
PRODUCTORA: Newmarket / Summit Entertainment
GÉNERO: Thriller. Intriga | Crimen. Película de culto. Cine independiente USA
: http://www.imdb.com/title/tt0209144/

PREMIOS: 2001: 2 nominaciones al Oscar: Mejor guión original y mejor montaje
2001: Nominada al Globo de Oro: Mejor guión
2001: Festival de Sundance: Mejor guión. 2 nominaciones
2001: 2 premios en el Festival de Toronto: Mejor película, guión
2001: Asociación de Críticos de Los Angeles: Mejor guión






Leonard es un investigador de una agencia de seguros cuya memoria está irreversiblemente dañada por culpa de un golpe en la cabeza, sufrido al intentar evitar el asesinato de su mujer: éste es el último hecho que recuerda del pasado. A causa del golpe, ha perdido la memoria reciente, es decir, los hechos cotidianos desaparecen de su mente en unos minutos. Así pues, para investigar y vengar el asesinato de su esposa tiene que recurrir a la ayuda de una cámara instantánea y a las notas tatuadas en su cuerpo.
























La pelicula NO tiene ninguna marca... solo colocamos el nombre de esta web en las capturas






Código:
General
Format                                   : Matroska
Format version                           : Version 2
File size                                : 2.75 GiB
Duration                                 : 1h 53mn
Overall bit rate                         : 3 474 Kbps
Movie name                               : www.club-hd.com
Encoded date                             : UTC 2012-12-29 03:39:05
Writing application                      : mkvmerge v5.7.0 ('The Whirlwind') built on Jul  8 2012 20:08:51
Writing library                          : libebml v1.2.3 + libmatroska v1.3.0

Video
ID                                       : 1
Format                                   : AVC
Format/Info                              : Advanced Video Codec
Format profile                           : High@L4.1
Format settings, CABAC                   : Yes
Format settings, ReFrames                : 5 frames
Codec ID                                 : V_MPEG4/ISO/AVC
Duration                                 : 1h 53mn
Bit rate                                 : 2 640 Kbps
Width                                    : 1 280 pixels
Height                                   : 544 pixels
Display aspect ratio                     : 2.35:1
Frame rate mode                          : Constant
Frame rate                               : 23.976 fps
Color space                              : YUV
Chroma subsampling                       : 4:2:0
Bit depth                                : 8 bits
Scan type                                : Progressive
Bits/(Pixel*Frame)                       : 0.158
Stream size                              : 2.04 GiB (74%)
Title                                    : www.club-hd.com
Writing library                          : x264 core 128 r2216 198a7ea
Language                                 : English
Default                                  : Yes
Forced                                   : No

Audio #1
ID                                       : 2
Format                                   : AC-3
Format/Info                              : Audio Coding 3
Mode extension                           : CM (complete main)
Format settings, Endianness              : Big
Codec ID                                 : A_AC3
Duration                                 : 1h 53mn
Bit rate mode                            : Constant
Bit rate                                 : 192 Kbps
Channel(s)                               : 2 channels
Channel positions                        : Front: L R
Sampling rate                            : 48.0 KHz
Bit depth                                : 16 bits
Compression mode                         : Lossy
Delay relative to video                  : 28ms
Stream size                              : 156 MiB (6%)
Title                                    : www.club-hd.com  >>  Latino
Language                                 : Spanish
Default                                  : Yes
Forced                                   : No

Audio #2
ID                                       : 3
Format                                   : AC-3
Format/Info                              : Audio Coding 3
Mode extension                           : CM (complete main)
Format settings, Endianness              : Big
Codec ID                                 : A_AC3
Duration                                 : 1h 53mn
Bit rate mode                            : Constant
Bit rate                                 : 640 Kbps
Channel(s)                               : 6 channels
Channel positions                        : Front: L C R, Side: L R, LFE
Sampling rate                            : 48.0 KHz
Bit depth                                : 16 bits
Compression mode                         : Lossy
Stream size                              : 519 MiB (18%)
Title                                    : www.club-hd.com  >>  Inglés
Language                                 : English
Default                                  : No
Forced                                   : No

Text #1
ID                                       : 4
Format                                   : UTF-8
Codec ID                                 : S_TEXT/UTF8
Codec ID/Info                            : UTF-8 Plain Text
Language                                 : Spanish
Default                                  : No
Forced                                   : No

Text #2
ID                                       : 5
Format                                   : UTF-8
Codec ID                                 : S_TEXT/UTF8
Codec ID/Info                            : UTF-8 Plain Text
Language                                 : English
Default                                  : No
Forced                                   : No

Menu
00:00:00.000                             : en:00:00:00.000
00:06:25.802                             : en:00:06:25.802
00:11:06.457                             : en:00:11:06.457
00:16:13.097                             : en:00:16:13.097
00:22:17.836                             : en:00:22:17.836
00:28:30.584                             : en:00:28:30.584
00:39:26.823                             : en:00:39:26.823
00:48:56.767                             : en:00:48:56.767
01:02:41.675                             : en:01:02:41.675
01:09:57.318                             : en:01:09:57.318
01:17:18.133                             : en:01:17:18.133
01:21:44.274                             : en:01:21:44.274
01:26:33.355                             : en:01:26:33.355
01:33:58.967                             : en:01:33:58.967
01:40:48.668                             : en:01:40:48.668
01:49:18.552                             : en:01:49:18.552










Enlaces de Mega y Fireload solo disponibles para Miembros VIP

Compra tu Membresía VIP y apoya a Club-HD!

ATENCIÓN! Tenemos TODO el material de Club-HD disponible por Mega y Fireload, enlaces 100% activos y online hasta la fecha

Llévate tus cuentas Mega PRO II gratis con tu membresía VIP!
Todos los posts vivos con links de Mega y Fireload.
Todo el material de Club-HD desbloqueado y sin publicidad.

Click Aquí para más información.




Enlaces de Mega y Fireload solo disponibles para Miembros VIP

Compra tu Membresía VIP y apoya a Club-HD!

ATENCIÓN! Tenemos TODO el material de Club-HD disponible por Mega y Fireload, enlaces 100% activos y online hasta la fecha

Llévate tus cuentas Mega PRO II gratis con tu membresía VIP!
Todos los posts vivos con links de Mega y Fireload.
Todo el material de Club-HD desbloqueado y sin publicidad.

Click Aquí para más información.



Para ver este contenido oculto, debes dar click en una de las siguientes reacciones : Like Like, Love Love, Haha Haha, Wow Wow, Sad Sad, Angry Angry
 
Última edición:

Rob Stark

New member
Registro
28 Ago 2012
Mensajes
243
Reacciones
29
Puntos
0
Edad
31

Reputation:

No la e visto pero esperemos este buena al menos parece que lo esta Desc_g_
 

Claudia

New member
Súper Moderador
Registro
28 Ago 2012
Mensajes
2.288
Reacciones
2.930
Puntos
0
Edad
48
Ubicación
EN MI MUNDO REAL...

Reputation:

Feliz año a todosssss amigossssssssss los quieroooooooooo, gracias por hacerme parte de esta gran familia, larga vida a club-hd
 

orcko5001

Active member
Registro
27 Ago 2012
Mensajes
288
Reacciones
35
Puntos
28
Edad
37

Reputation:

muchas gracias por la movie saludos y feliz año nuevo
 

Usuarios Que Están Viendo Este Tema (Total: 1, Miembros: 0, Invitados: 1)

Arriba