Memoirs of a Geisha (2005) m-720p Dual Latino-Inglés [Subt. Esp] (Romance. Drama)

Maestro Revolver

Well-known member
Miembro del Staff
Administrador
Registro
9 Ago 2012
Mensajes
3.569
Reacciones
59.346
Puntos
113

Reputation:









TÍTULO ORIGINAL: Memoirs of a Geisha
AÑO: 2005
DURACIÓN: 145 min.
PAÍS: USA
DIRECTOR: Rob Marshall
GUIÓN: Robin Swicord (Novela: Arthur Golden)
REPARTO: Zhang Ziyi, Ken Watanabe, Gong Li, Michelle Yeoh, Suzuka Ohgo, Cary-Hiroyuki Tagawa, Youki Kudoh
PRODUCTORA: Columbia Pictures / DreamWorks / Spyglass Entertainment / Amblin Entertainment
GÉNERO: Romance. Drama | Drama romántico
: http://www.imdb.com/title/tt0397535/

PREMIOS: 2005: 3 Oscars: Mejor fotografía, vestuario, dirección artística. 6 nominaciones
2005: Globos de Oro: Mejor banda sonora original. 2 nominaciones
2005: 3 Premios BAFTA: Mejor música, fotografía y vestuario. 6 nominaciones
2005: National Board of Review: Mejor actriz de reparto (Gong Li)
2005: Círculo de Críticos de Nueva York: Nominada a Mejor Actriz
2005: Critics' Choice Awards: Mejor compositor (Williams). 3 nominaciones






Japón, 1929. Chiyo, una niña de nueve años, es vendida por sus padres para trabajar en la casa de Geishas de Nitta Okiya. Su hermana mayor Satsu no es aceptada y es enviada a un prostíbulo. En la casa Chiyo conoce a Pumpkin, otra niña que va a ser instruida para ser geisha, así como a las famosas geishas Hatsumomo (Gong Li) y su rival Mameha (Michelle Yeoh). Los comienzos de Chiyo (Zhang Ziyi) son duros, pero un encuentro con el que será el amor de su vida, el Presidente (Ken Watanabe), hará que desde ese momento sólo desee convertirse en una famosa geisha para estar más cerca de él. Adaptación del famoso best-seller de Arthur Golden.
























La pelicula NO tiene ninguna marca... solo colocamos el nombre de esta web en las capturas






Código:
General
Format                                   : Matroska
Format version                           : Version 2
File size                                : 3.95 GiB
Duration                                 : 2h 25mn
Overall bit rate                         : 3 897 Kbps
Movie name                               : www.club-hd.com
Encoded date                             : UTC 2013-03-28 01:31:30
Writing application                      : mkvmerge v5.7.0 ('The Whirlwind') built on Jul  8 2012 20:08:51
Writing library                          : libebml v1.2.3 + libmatroska v1.3.0

Video
ID                                       : 1
Format                                   : AVC
Format/Info                              : Advanced Video Codec
Format profile                           : High@L4.1
Format settings, CABAC                   : Yes
Format settings, ReFrames                : 8 frames
Codec ID                                 : V_MPEG4/ISO/AVC
Duration                                 : 2h 25mn
Bit rate                                 : 3 000 Kbps
Width                                    : 1 280 pixels
Height                                   : 544 pixels
Display aspect ratio                     : 2.35:1
Original display aspect ratio            : 2.35:1
Frame rate mode                          : Constant
Frame rate                               : 23.976 fps
Color space                              : YUV
Chroma subsampling                       : 4:2:0
Bit depth                                : 8 bits
Scan type                                : Progressive
Bits/(Pixel*Frame)                       : 0.180
Stream size                              : 2.96 GiB (75%)
Writing library                          : x264 core 120
Language                                 : English
Default                                  : Yes
Forced                                   : No
Color primaries                          : BT.709
Transfer characteristics                 : BT.709
Matrix coefficients                      : BT.709

Audio #1
ID                                       : 2
Format                                   : AC-3
Format/Info                              : Audio Coding 3
Mode extension                           : CM (complete main)
Format settings, Endianness              : Big
Codec ID                                 : A_AC3
Duration                                 : 2h 25mn
Bit rate mode                            : Constant
Bit rate                                 : 448 Kbps
Channel(s)                               : 6 channels
Channel positions                        : Front: L C R, Side: L R, LFE
Sampling rate                            : 48.0 KHz
Bit depth                                : 16 bits
Compression mode                         : Lossy
Stream size                              : 465 MiB (11%)
Title                                    : www.club-hd.com  >>  Latino
Language                                 : Spanish
Default                                  : Yes
Forced                                   : No

Audio #2
ID                                       : 3
Format                                   : AC-3
Format/Info                              : Audio Coding 3
Mode extension                           : CM (complete main)
Format settings, Endianness              : Big
Codec ID                                 : A_AC3
Duration                                 : 2h 25mn
Bit rate mode                            : Constant
Bit rate                                 : 448 Kbps
Channel(s)                               : 6 channels
Channel positions                        : Front: L C R, Side: L R, LFE
Sampling rate                            : 48.0 KHz
Bit depth                                : 16 bits
Compression mode                         : Lossy
Stream size                              : 465 MiB (11%)
Title                                    : www.club-hd.com  >>  Inglés
Language                                 : English
Default                                  : No
Forced                                   : No

Text
ID                                       : 4
Format                                   : UTF-8
Codec ID                                 : S_TEXT/UTF8
Codec ID/Info                            : UTF-8 Plain Text
Language                                 : Spanish
Default                                  : No
Forced                                   : No










Enlaces de Mega y Fireload solo disponibles para Miembros VIP

Compra tu Membresía VIP y apoya a Club-HD!

ATENCIÓN! Tenemos TODO el material de Club-HD disponible por Mega y Fireload, enlaces 100% activos y online hasta la fecha

Llévate tus cuentas Mega PRO II gratis con tu membresía VIP!
Todos los posts vivos con links de Mega y Fireload.
Todo el material de Club-HD desbloqueado y sin publicidad.

Click Aquí para más información.





Enlaces de Mega y Fireload solo disponibles para Miembros VIP

Compra tu Membresía VIP y apoya a Club-HD!

ATENCIÓN! Tenemos TODO el material de Club-HD disponible por Mega y Fireload, enlaces 100% activos y online hasta la fecha

Llévate tus cuentas Mega PRO II gratis con tu membresía VIP!
Todos los posts vivos con links de Mega y Fireload.
Todo el material de Club-HD desbloqueado y sin publicidad.

Click Aquí para más información.



Para ver este contenido oculto, debes dar click en una de las siguientes reacciones : Like Like, Love Love, Haha Haha, Wow Wow, Sad Sad, Angry Angry

 
Última edición:

wolfaiki

Well-known member
Registro
28 Ago 2012
Mensajes
1.632
Reacciones
53
Puntos
48

Reputation:

Una excelente película. Gracias por el aporte.
 

zacygal

Well-known member
Registro
3 Sep 2012
Mensajes
1.515
Reacciones
1.536
Puntos
113
Edad
49

Reputation:

Esta como la de Django me gustaría tenerla en 1080 pero la fila de descarga de pelas es inmensa, se agradece tantas y tan buenas peliculas que nos dejas día a día ...
 

jcamacho14

Active member
Registro
2 Sep 2012
Mensajes
179
Reacciones
31
Puntos
28
Edad
35

Reputation:

Excelente! Muchas gracias por el aporte...
 

Lcreme

Well-known member
Registro
27 Ago 2012
Mensajes
2.092
Reacciones
105
Puntos
63

Reputation:

Pesa menos hehehe bajo esta mejor :p gracias x el trabajo y tiempo tomado :)
 

eljumachi

Well-known member
Miembro VIP
Registro
27 Ago 2012
Mensajes
2.174
Reacciones
339
Puntos
83

Reputation:

Drama, esta película me gusta Muchas gracias R21 saludos.
 

Lug

Well-known member
Registro
24 Oct 2012
Mensajes
1.691
Reacciones
37
Puntos
48
Edad
62

Reputation:

Desc_g_
Muchas, muchas, muchas gracias....
Excelente película....
 

Usuarios Que Están Viendo Este Tema (Total: 1, Miembros: 0, Invitados: 1)

Arriba