Men of Honor (2000) 720p BDRip Dual Latino-Inglés [Subt. Esp] (Drama. Acción)

Maestro Revolver

Well-known member
Miembro del Staff
Administrador
Registro
9 Ago 2012
Mensajes
3.567








TÍTULO ORIGINAL: Men of Honor
AÑO: 2000
DURACIÓN: 123 min.
PAÍS: USA
DIRECTOR: George Tillman Jr.
GUIÓN: Scott Marshall Smith
REPARTO: Robert De Niro, Cuba Gooding Jr., Charlize Theron, Michael Rapaport, Hal Holbrook, David Keith, Joshua Leonard, Powers Boothe, David Conrad, Aunjanne Ellis, Ryan Honey, Scott Kraft, Holt McCallany, Dennis Troutman, Joshua Feinman, Theo Nicholas Pagones
PRODUCTORA: 20th Century Fox
GÉNERO: Drama. Acción | Racismo. Basado en hechos reales. Submarinismo. Años 40. Años 50. Años 60
: http://www.imdb.com/title/tt0203019/






Carl Brashear nació en Kentucky en el seno de una familia de campesinos negros cuya vida ha estado siempre marcada por el racismo. Mac, el padre de Carl, le enseñó desde niño el valor de la perseverancia como arma para vencer los obstáculos y alcanzar sus sueños. Carl sueña con ingresar en la escuela de buzos de la marina de los Estados Unidos.
























La pelicula NO tiene ninguna marca... solo colocamos el nombre de esta web en las capturas






Código:
General
Format                                   : Matroska
Format version                           : Version 2
File size                                : 3.24 GiB
Duration                                 : 2h 8mn
Overall bit rate                         : 3 597 Kbps
Movie name                               : www.club-hd.com
Encoded date                             : UTC 2013-10-19 01:47:47
Writing application                      : mkvmerge v5.7.0 ('The Whirlwind') built on Jul  8 2012 20:08:51
Writing library                          : libebml v1.2.3 + libmatroska v1.3.0

Video
ID                                       : 1
Format                                   : AVC
Format/Info                              : Advanced Video Codec
Format profile                           : High@L4.1
Format settings, CABAC                   : Yes
Format settings, ReFrames                : 5 frames
Codec ID                                 : V_MPEG4/ISO/AVC
Duration                                 : 2h 8mn
Bit rate                                 : 2 700 Kbps
Width                                    : 1 280 pixels
Height                                   : 544 pixels
Display aspect ratio                     : 2.35:1
Frame rate mode                          : Constant
Frame rate                               : 23.976 fps
Color space                              : YUV
Chroma subsampling                       : 4:2:0
Bit depth                                : 8 bits
Scan type                                : Progressive
Bits/(Pixel*Frame)                       : 0.162
Stream size                              : 2.37 GiB (73%)
Title                                    : www.club-hd.com
Writing library                          : x264 core 128 r2216 198a7ea
Language                                 : English
Default                                  : Yes
Forced                                   : No

Audio #1
ID                                       : 2
Format                                   : AC-3
Format/Info                              : Audio Coding 3
Mode extension                           : CM (complete main)
Format settings, Endianness              : Big
Codec ID                                 : A_AC3
Duration                                 : 2h 8mn
Bit rate mode                            : Constant
Bit rate                                 : 448 Kbps
Channel(s)                               : 6 channels
Channel positions                        : Front: L C R, Side: L R, LFE
Sampling rate                            : 48.0 KHz
Bit depth                                : 16 bits
Compression mode                         : Lossy
Stream size                              : 413 MiB (12%)
Title                                    : www.club-hd.com  >>  Latino
Language                                 : Spanish
Default                                  : Yes
Forced                                   : No

Audio #2
ID                                       : 3
Format                                   : AC-3
Format/Info                              : Audio Coding 3
Mode extension                           : CM (complete main)
Format settings, Endianness              : Big
Codec ID                                 : A_AC3
Duration                                 : 2h 8mn
Bit rate mode                            : Constant
Bit rate                                 : 448 Kbps
Channel(s)                               : 6 channels
Channel positions                        : Front: L C R, Side: L R, LFE
Sampling rate                            : 48.0 KHz
Bit depth                                : 16 bits
Compression mode                         : Lossy
Stream size                              : 413 MiB (12%)
Title                                    : www.club-hd.com  >>  Inglés
Language                                 : English
Default                                  : No
Forced                                   : No

Text
ID                                       : 4
Format                                   : UTF-8
Codec ID                                 : S_TEXT/UTF8
Codec ID/Info                            : UTF-8 Plain Text
Language                                 : Spanish
Default                                  : No
Forced                                   : No

Menu #1
00:00:00.000                             : en:Opening Credits/"Don't End Up Like Me"
00:07:31.534                             : en:Big Future in the U.S. Navy
00:14:51.599                             : en:Master Chief Sunday
00:21:40.299                             : en:Beware What You Wish For
00:27:09.670                             : en:Welcoming Boatswain's Mate Brashear
00:36:03.286                             : en:Passing the Test
00:42:32.550                             : en:Salvage and Rescue
00:49:09.572                             : en:Bad News
00:54:16.462                             : en:The Bet
01:04:24.944                             : en:Be The Best
01:10:44.365                             : en:Against All Odds
01:19:32.017                             : en:Happy New Year
01:25:00.721                             : en:Missile Rescue
01:31:57.679                             : en:Never Gonna Dive Again
01:41:48.311                             : en:To Be A Master Diver
01:48:11.235                             : en:Trial of Honor
01:55:17.744                             : en:Twelve Steps
02:02:24.337                             : en:End Credits

Menu #2
00:00:00.097                             : en:00:00:00.097








Enlaces de Mega y Google Drive solo disponibles para Miembros VIP

Compra tu Membresía VIP y apoya a Club-HD!

ATENCIÓN! Tenemos TODO el material de Club-HD disponible por Mega y Google Drive, enlaces 100% activos y online hasta la fecha

Llévate tus cuentas Mega PRO III gratis con tu membresía VIP!
Todos los posts vivos con links de Mega y Google Drive.
Todo el material de Club-HD desbloqueado y sin publicidad.

Click Aquí para más información.



Para ver este contenido oculto, debes dar click en una de las siguientes reacciones : Like Like, Love Love, Haha Haha, Wow Wow, Sad Sad, Angry Angry

 
Última edición por un moderador:

Doctor Jason

New member
Súper Moderador
Registro
1 Sep 2012
Mensajes
2.398
Ubicación
Buenos Aires
Muchas Gracias!!!

Muchisimas, pero muchisimas gracias a todo el staff de Club-HD y a "agus365" por el regalo que me hicieron, la verdad es que les estoy eternamente agradecidos por tal hermoso gesto.
Porque la verdad es que gente como ustedes no se encuentran en cualquier lado, llenos de generosidad y buena onda, gracias nuevamente y estoy orgullosísimo de pertenecer a este hermoso grupo llamado Club-HD. Los quiero mucho de todo corazón!!! :dplgar: (Doctor Jason también tiene sentimientos :llrnd2:)



Bueno......en la imagen no se nota, porque está lloviendo y tengo la máscara puesta, pero de verdad, estoy muy emocionado.:llrnd2:

Saludos.bye
 

Usuarios Que Están Viendo Este Tema (Total: 1, Miembros: 0, Invitados: 1)

Quién Leyó Este Tema (Total Miembros: 3)

Arriba