Metallica - Français Pour Une Nuit (2009) m-1080p BDRip [AC3 5.1] (Concierto)

Maestro Revolver

Well-known member
Miembro del Staff
Administrador
Registro
9 Ago 2012
Mensajes
3.569
Reacciones
59.366
Puntos
113

Reputation:









Français pour une nuit es un DVD de la banda estadounidense Metallica tocando en directo. Este fue grabado en Nimes, Francia en la Arena de Nîmes, un histórico anfiteatro romano, durante la gira World Magnetic Tour 2000 promocionando su álbum Death Magnetic. Este será lanzado en tres versiones diferentes: en DVD en paquete digital con un libreto de 16 páginas, en Blu-Ray en paquete digital con un libreto de 16 páginas y en una edición limitada en caja de metal que incluye el DVD, el álbum Death Magnetic, una playera, una pase laminado y cinco fotos exclusivas.
Este solo será lanzado en Francia, aunque también se podrá obtener por medio del sitio oficial de Metallica. En este concierto no se pudo hacer el espectáculo completo con pirotecnia y demás debido a que así fue como los organizadores se lo pidieron.Todas estas publicaciones solo se podran obtener en Europa, ya que en América solo se consigue Orgullo, Pasión y Gloria: Tres Noches en la Ciudad de México.
: http://www.imdb.com/title/tt1578124/


Track List:

01.- "The Ecstasy of Gold" (Intro)
02.- "Blackened"
03.- "Creeping Death"
04.- "Fuel"
05.- "Harvester of Sorrow"
06.- "Fade to Black"
07.- "Broken, Beat & Scarred"
08.- "Cyanide"
09.- "Sad but True"
10.- "One"
11.- "All Nightmare Long"
12.- "The Day That Never Comes"
13.- "Master of Puppets"
14.- "Dyers Eve"
15.- "Nothing Else Matters"
16.- "Enter Sandman"
17.- "Stone Cold Crazy"
18.- "Motorbreath"
19.- "Seek and Destroy"





























Código:
General
Format                                   : Matroska
Format version                           : Version 2
File size                                : 4.85 GiB
Duration                                 : 2h 12mn
Overall bit rate                         : 5 259 Kbps
Movie name                               : www.club-hd.com
Encoded date                             : UTC 2013-04-09 21:30:45
Writing application                      : mkvmerge v5.7.0 ('The Whirlwind') built on Jul  8 2012 20:08:51
Writing library                          : libebml v1.2.3 + libmatroska v1.3.0

Video
ID                                       : 1
Format                                   : AVC
Format/Info                              : Advanced Video Codec
Format profile                           : Main@L4.0
Format settings, CABAC                   : Yes
Format settings, ReFrames                : 4 frames
Codec ID                                 : V_MPEG4/ISO/AVC
Duration                                 : 2h 12mn
Bit rate                                 : 4 600 Kbps
Width                                    : 1 920 pixels
Height                                   : 1 072 pixels
Display aspect ratio                     : 16:9
Frame rate mode                          : Constant
Frame rate                               : 29.970 fps
Color space                              : YUV
Chroma subsampling                       : 4:2:0
Bit depth                                : 8 bits
Scan type                                : Progressive
Bits/(Pixel*Frame)                       : 0.075
Stream size                              : 4.16 GiB (86%)
Title                                    : www.club-hd.com
Writing library                          : x264 core 112
Language                                 : English
Default                                  : Yes
Forced                                   : No
Color primaries                          : BT.709
Transfer characteristics                 : BT.709
Matrix coefficients                      : BT.709

Audio
ID                                       : 2
Format                                   : AC-3
Format/Info                              : Audio Coding 3
Mode extension                           : CM (complete main)
Format settings, Endianness              : Big
Codec ID                                 : A_AC3
Duration                                 : 2h 12mn
Bit rate mode                            : Constant
Bit rate                                 : 640 Kbps
Channel(s)                               : 6 channels
Channel positions                        : Front: L C R, Side: L R, LFE
Sampling rate                            : 48.0 KHz
Bit depth                                : 16 bits
Compression mode                         : Lossy
Stream size                              : 604 MiB (12%)
Title                                    : www.club-hd.com
Language                                 : English
Default                                  : Yes
Forced                                   : No

Menu
00:00:00.000                             : en:Intro
00:02:42.629                             : en:Blackened
00:08:20.266                             : en:Creeping Death
00:14:47.720                             : en:Fuel
00:19:19.592                             : en:Harvester Of Sorrow
00:25:27.292                             : en:Fade To Black
00:34:05.043                             : en:Broken, Beat & Scarred
00:40:43.041                             : en:Cyanide
00:48:31.642                             : en:Sad But True
00:54:15.219                             : en:One
01:02:09.225                             : en:All Nightmare Long
01:11:41.197                             : en:The Day That Never Comes
01:20:13.642                             : en:Master Of Puppets
01:28:12.521                             : en:Dyers Eve
01:35:26.120                             : en:Nothing Else Matters
01:41:21.542                             : en:Enter Sandman
01:50:40.267                             : en:Stone Cold Crazy
01:53:06.713                             : en:Motorbreath
01:58:56.563                             : en:Seek And Destroy








Enlaces de Mega y Fireload solo disponibles para Miembros VIP

Compra tu Membresía VIP y apoya a Club-HD!

ATENCIÓN! Tenemos TODO el material de Club-HD disponible por Mega y Fireload, enlaces 100% activos y online hasta la fecha

Llévate tus cuentas Mega PRO II gratis con tu membresía VIP!
Todos los posts vivos con links de Mega y Fireload.
Todo el material de Club-HD desbloqueado y sin publicidad.

Click Aquí para más información.



Para ver este contenido oculto, debes dar click en una de las siguientes reacciones : Like Like, Love Love, Haha Haha, Wow Wow, Sad Sad, Angry Angry

 
Última edición por un moderador:

DoomsDay Elite

Well-known member
Registro
5 Sep 2012
Mensajes
1.225
Reacciones
1.101
Puntos
113

Reputation:

dure demasiado esperando que llegara este día
lo digo mas que todo por este concierto enorme y bestial con 1 calidad de sonido impresionante gracias master !R0ckin2
ahora lo voy a disfrutar a todo volumen !
 

zeystarr

New member
Registro
27 Ago 2012
Mensajes
451
Reacciones
12
Puntos
0
Edad
38

Reputation:

grande club hd son los mejores sigas como siempre y mil gracias
 

Ezze

Well-known member
Miembro del Staff
Súper Moderador
Registro
28 Ago 2012
Mensajes
1.664
Reacciones
1.792
Puntos
113
Ubicación
En la Torre de Observación

Reputation:

Capo!!! El tercer concierto de Metallica que posteas y me llevo!! :D:D:D:D Muchísimas gracias Revo!! :dplgar: Vos sí sabes de música!! R0ckin2R0ckin2R0ckin2 Saludos bye
 

biohazard

New member
Registro
21 Ene 2013
Mensajes
154
Reacciones
5
Puntos
0
Edad
38

Reputation:

exceleeeeenteeeeeee, me falta el Fan Can Six :dplgar:
 

sharklui

Well-known member
Miembro VIP
Registro
28 Ago 2012
Mensajes
1.026
Reacciones
271
Puntos
83
Ubicación
The Matrix

Reputation:

Muchas gracias Revol , aunque no es mi genero se le puede pasar a algun conocido :dplgar:
 

Joker

Well-known member
Miembro del Staff
Súper Moderador
Registro
27 Ago 2012
Mensajes
1.349
Reacciones
3.765
Puntos
113
Ubicación
Arkham Asylum

Reputation:

Desc_g_

Otro más de Metallica? O.O

Me van a hacer llorar, mi banda favorita aunque sean catalogados como "comerciales" :D

Solo falta "The Big 4" y podre morir en paz jajaja

Muchas Gracias!! Se agradece en serio Tb_up3

Saludos :D
 

Usuarios Que Están Viendo Este Tema (Total: 1, Miembros: 0, Invitados: 1)

Arriba