Modern Family S02 (2011) 1080p NF WEB-DL Dual Latino-Inglés [Subt.Esp] (Comedia)

Tr3vor

Well-known member
Uploader
Colaborador
Registro
17 May 2018
Mensajes
1.270
Reacciones
12.987
Puntos
113
Edad
32

Reputation:






Jay tiene hijos mayores, nietos y una mujer joven y guapa, madre de un hijo preadolescente. Juntos deben salvar las diferencias generacionales, culturales y sociales.


MEDIAINFO
Código:
Format                      : Matroska
Format version              : Version 4
File size                   : 1.15 GiB
Duration                    : 21 min 55 s
Overall bit rate mode       : Variable
Overall bit rate            : 7 485 kb/s
Movie name                  : Modern Family S02E01 [The Old Wagon] - Trevor
Writing application         : mkvmerge v58.0.0 ('Supper's Ready') 32-bit
Writing library             : libebml v1.4.2 + libmatroska v1.6.4

Video
ID                          : 1
Format                      : AVC
Format/Info                 : Advanced Video Codec
Format profile              : Main@L4
Format settings             : CABAC / 3 Ref Frames
Format settings, CABAC      : Yes
Format settings, Reference  : 3 frames
Codec ID                    : V_MPEG4/ISO/AVC
Duration                    : 21 min 55 s
Bit rate mode               : Variable
Bit rate                    : 6 741 kb/s
Maximum bit rate            : 10.2 Mb/s
Width                       : 1 920 pixels
Height                      : 1 080 pixels
Display aspect ratio        : 16:9
Frame rate mode             : Constant
Frame rate                  : 23.976 (24000/1001) FPS
Color space                 : YUV
Chroma subsampling          : 4:2:0
Bit depth                   : 8 bits
Scan type                   : Progressive
Bits/(Pixel*Frame)          : 0.136
Stream size                 : 1.03 GiB (90%)
Writing library             : x264 core 148 r2722 1b0121b
Encoding settings           : cabac=1 / ref=3 / deblock=1:0:0 / analyse=0x1:0x111 / me=umh / subme=10 / psy=1 / psy_rd=1.00:0.00 / mixed_ref=1 / me_range=24 / chroma_me=1 / trellis=2 / 8x8dct=0 / cqm=0 / deadzone=21,11 / fast_pskip=1 / chroma_qp_offset=-2 / threads=6 / lookahead_threads=1 / sliced_threads=0 / nr=0 / decimate=1 / interlaced=0 / bluray_compat=0 / stitchable=1 / constrained_intra=0 / bframes=2 / b_pyramid=0 / b_adapt=2 / b_bias=0 / direct=3 / weightb=1 / open_gop=0 / weightp=2 / keyint=48 / keyint_min=25 / scenecut=0 / intra_refresh=0 / rc_lookahead=48 / rc=2pass / mbtree=1 / bitrate=6741 / ratetol=1.0 / qcomp=0.50 / qpmin=6 / qpmax=51 / qpstep=4 / cplxblur=20.0 / qblur=0.5 / vbv_maxrate=10215 / vbv_bufsize=13620 / nal_hrd=vbr / filler=0 / ip_ratio=1.40 / aq=1:1.00
Default                     : Yes
Forced                      : No

Audio #1
ID                          : 2
Format                      : E-AC-3
Format/Info                 : Enhanced AC-3
Commercial name             : Dolby Digital Plus
Codec ID                    : A_EAC3
Duration                    : 21 min 55 s
Bit rate mode               : Constant
Bit rate                    : 128 kb/s
Channel(s)                  : 2 channels
Channel layout              : L R
Sampling rate               : 48.0 kHz
Frame rate                  : 31.250 FPS (1536 SPF)
Bit depth                   : 32 bits
Compression mode            : Lossy
Stream size                 : 20.1 MiB (2%)
Title                       : Latin American
Language                    : Spanish
Service kind                : Complete Main
Default                     : Yes
Forced                      : No

Audio #2
ID                          : 3
Format                      : E-AC-3
Format/Info                 : Enhanced AC-3
Commercial name             : Dolby Digital Plus
Codec ID                    : A_EAC3
Duration                    : 21 min 55 s
Bit rate mode               : Constant
Bit rate                    : 640 kb/s
Channel(s)                  : 6 channels
Channel layout              : L R C LFE Ls Rs
Sampling rate               : 48.0 kHz
Frame rate                  : 31.250 FPS (1536 SPF)
Bit depth                   : 32 bits
Compression mode            : Lossy
Stream size                 : 100 MiB (9%)
Language                    : English
Service kind                : Complete Main
Default                     : Yes
Forced                      : No

Text
ID                          : 4
Format                      : UTF-8
Codec ID                    : S_TEXT/UTF8
Codec ID/Info               : UTF-8 Plain Text
Duration                    : 21 min 25 s
Bit rate                    : 99 b/s
Count of elements           : 410
Stream size                 : 15.6 KiB (0%)
Title                       : Latin American
Language                    : Spanish
Default                     : No
Forced                      : No









Resolución de video: 1920x1080 (AVC, Main@L4)
Formato de audio: EAC3 128 kb/s 2.0 (Español latino), EAC3 640 kb/s 5.1 (Inglés)
Formato de subtítulos: SubRip (.srt) (Completos & Forzados)
Lista de audio: Latino e inglés
Fuente: Netflix





Enlaces de Mega y Fireload solo disponibles para Miembros VIP

Compra tu Membresía VIP y apoya a Club-HD!

ATENCIÓN! Tenemos TODO el material de Club-HD disponible por Mega y Fireload, enlaces 100% activos y online hasta la fecha

Llévate tus cuentas Mega PRO II gratis con tu membresía VIP!
Todos los posts vivos con links de Mega y Fireload.
Todo el material de Club-HD desbloqueado y sin publicidad.

Click Aquí para más información.


Enlaces de Mega y Fireload solo disponibles para Miembros VIP

Compra tu Membresía VIP y apoya a Club-HD!

ATENCIÓN! Tenemos TODO el material de Club-HD disponible por Mega y Fireload, enlaces 100% activos y online hasta la fecha

Llévate tus cuentas Mega PRO II gratis con tu membresía VIP!
Todos los posts vivos con links de Mega y Fireload.
Todo el material de Club-HD desbloqueado y sin publicidad.

Click Aquí para más información.
 

Tr3vor

Well-known member
Uploader
Colaborador
Registro
17 May 2018
Mensajes
1.270
Reacciones
12.987
Puntos
113
Edad
32

Reputation:

mañana disponilbe en mega
 

samourai_

Active member
Miembro VIP
Registro
16 May 2015
Mensajes
277
Reacciones
64
Puntos
28

Reputation:

Muchas gracias por otra temporada, las primeras fueron la mejores.
 

FUNKSW

Well-known member
Miembro VIP
Registro
12 Dic 2015
Mensajes
471
Reacciones
290
Puntos
63
Edad
44

Reputation:

Tremendo aporte. Gracias por compartir.
 

allkhan

Well-known member
Registro
18 Dic 2014
Mensajes
698
Reacciones
457
Puntos
63
Edad
45

Reputation:

gracias por continuar subiendo la serie
 

cripp

Well-known member
Registro
27 Ago 2012
Mensajes
9.683
Reacciones
845
Puntos
113

Reputation:

Gracias por compartir
 

Usuarios Que Están Viendo Este Tema (Total: 1, Miembros: 0, Invitados: 1)

Arriba