• Este aviso va dirigido a todos los nuevos miembros recien llegados a Club-HD. Les recordamos que la direccion URL de este sitio web es , asi que deben acceder únicamente por esta URL. Sean todos bienvenidos al Club!

Mortal Kombat Legends: Scorpion’s Revenge (2020) 1080p AMZN WEB-DL Dual Latino-Inglés [Subt. Esp]

Bebesaurio

Novio de Vizard
Miembro del Staff
Moderador
Uploader
Registrado
12 Mar 2018
Mensajes
590
Puntos de reacción
14,295
Puntos
93
Edad
21



SINOPSIS

Basado en el popular videojuego creado por Ed Boon y John Tovias, Mortal Kombat Legends: Scorpion’s Revenge pone el foco en un torneo único que se celebra una vez por generación y en el que se enfrentan los campeones de distintos reinos. El ganador determinará el destino de la Tierra y de sus habitantes.

MÁS INFORMACIÓN




TRAILER



CAPTURAS










MEDIAINFO

Código:
General
Unique ID                                : 332578814410385181815813087593211958765 (0xFA3459897D5E1F4EB9A414CA2C2915ED)
Format                                   : Matroska
Format version                           : Version 4
File size                                : 4.20 GiB
Duration                                 : 1 h 20 min
Overall bit rate                         : 7 516 kb/s
Encoded date                             : UTC 2020-04-14 15:43:30
Writing application                      : mkvmerge v32.0.0 ('Astral Progressions') 64-bit
Writing library                          : libebml v1.3.7 + libmatroska v1.5.0

Video
ID                                       : 1
Format                                   : AVC
Format/Info                              : Advanced Video Codec
Format profile                           : High@L4
Format settings                          : CABAC / 4 Ref Frames
Format settings, CABAC                   : Yes
Format settings, Reference frames        : 4 frames
Codec ID                                 : V_MPEG4/ISO/AVC
Duration                                 : 1 h 20 min
Bit rate mode                            : Constant
Bit rate                                 : 6 490 kb/s
Nominal bit rate                         : 10 000 kb/s
Width                                    : 1 920 pixels
Height                                   : 1 080 pixels
Display aspect ratio                     : 16:9
Frame rate mode                          : Constant
Frame rate                               : 23.976 (24000/1001) FPS
Color space                              : YUV
Chroma subsampling                       : 4:2:0
Bit depth                                : 8 bits
Scan type                                : Progressive
Bits/(Pixel*Frame)                       : 0.131
Stream size                              : 3.63 GiB (86%)
Title                                    : AMZN WEB-DL
Language                                 : English
Default                                  : Yes
Forced                                   : No
Color range                              : Limited
Color primaries                          : BT.709
Transfer characteristics                 : BT.709
Matrix coefficients                      : BT.709

Audio #1
ID                                       : 2
Format                                   : AC-3
Format/Info                              : Audio Coding 3
Commercial name                          : Dolby Digital
Codec ID                                 : A_AC3
Duration                                 : 1 h 19 min
Bit rate mode                            : Constant
Bit rate                                 : 384 kb/s
Channel(s)                               : 6 channels
Channel layout                           : L R C LFE Ls Rs
Sampling rate                            : 48.0 kHz
Frame rate                               : 31.250 FPS (1536 SPF)
Compression mode                         : Lossy
Stream size                              : 220 MiB (5%)
Title                                    : Latino 5.1
Language                                 : Spanish
Service kind                             : Complete Main
Default                                  : Yes
Forced                                   : Yes

Audio #2
ID                                       : 3
Format                                   : E-AC-3
Format/Info                              : Enhanced AC-3
Commercial name                          : Dolby Digital Plus
Codec ID                                 : A_EAC3
Duration                                 : 1 h 20 min
Bit rate mode                            : Constant
Bit rate                                 : 640 kb/s
Channel(s)                               : 6 channels
Channel layout                           : L R C LFE Ls Rs
Sampling rate                            : 48.0 kHz
Frame rate                               : 31.250 FPS (1536 SPF)
Compression mode                         : Lossy
Stream size                              : 367 MiB (9%)
Language                                 : English
Service kind                             : Complete Main
Default                                  : No
Forced                                   : No

Text #1
ID                                       : 4
Format                                   : UTF-8
Codec ID                                 : S_TEXT/UTF8
Codec ID/Info                            : UTF-8 Plain Text
Duration                                 : 18 min 22 s
Bit rate                                 : 1 b/s
Count of elements                        : 6
Stream size                              : 229 Bytes (0%)
Title                                    : Forzados
Language                                 : Spanish
Default                                  : Yes
Forced                                   : Yes

Text #2
ID                                       : 5
Format                                   : UTF-8
Codec ID                                 : S_TEXT/UTF8
Codec ID/Info                            : UTF-8 Plain Text
Duration                                 : 1 h 17 min
Bit rate                                 : 39 b/s
Count of elements                        : 856
Stream size                              : 22.2 KiB (0%)
Title                                    : Completos
Language                                 : Spanish
Default                                  : No
Forced                                   : No

Text #3
ID                                       : 6
Format                                   : UTF-8
Codec ID                                 : S_TEXT/UTF8
Codec ID/Info                            : UTF-8 Plain Text
Duration                                 : 1 h 17 min
Bit rate                                 : 38 b/s
Count of elements                        : 868
Stream size                              : 21.6 KiB (0%)
Language                                 : English
Default                                  : No
Forced                                   : No
CONTRASEÑA




DESCARGAR

Todos los links son Intercambiables




Enlaces de Mega y Google Drive solo disponibles para Miembros VIP

Compra tu Membresía VIP y apoya a Club-HD!

ATENCIÓN! Tenemos TODO el material de Club-HD disponible por Mega y Google Drive, enlaces 100% activos y online hasta la fecha

Llévate tus cuentas Mega PRO II gratis con tu membresía VIP!
Todos los posts vivos con links de Mega y Google Drive.
Todo el material de Club-HD desbloqueado y sin publicidad.

Click Aquí para más información.






Para ver este contenido oculto, debes dar click en una de las siguientes reacciones: Like Like, Love Love, Haha Haha, Wow Wow, Sad Sad, Angry Angry



Para ver este contenido oculto, debes dar click en una de las siguientes reacciones: Like Like, Love Love, Haha Haha, Wow Wow, Sad Sad, Angry Angry


Para ver este contenido oculto, debes dar click en una de las siguientes reacciones: Like Like, Love Love, Haha Haha, Wow Wow, Sad Sad, Angry Angry
 

damisaiyan

Active member
Registrado
27 Ago 2012
Mensajes
491
Puntos de reacción
32
Puntos
28
Edad
31
Sitio web
www.youtube.com
gracias por este aporte, ojala la pelicula live action se vea igual de buena que esta :D
 

rachi

Active member
Registrado
21 Jul 2018
Mensajes
650
Puntos de reacción
66
Puntos
28
Gracias por el aporte
 

josefo08

Well-known member
Registrado
14 Abr 2014
Mensajes
1,221
Puntos de reacción
42
Puntos
48
Edad
48
gracias por el aporte
:love: 👍
 

josefo08

Well-known member
Registrado
14 Abr 2014
Mensajes
1,221
Puntos de reacción
42
Puntos
48
Edad
48



SINOPSIS

Basado en el popular videojuego creado por Ed Boon y John Tovias, Mortal Kombat Legends: Scorpion’s Revenge pone el foco en un torneo único que se celebra una vez por generación y en el que se enfrentan los campeones de distintos reinos. El ganador determinará el destino de la Tierra y de sus habitantes.

MÁS INFORMACIÓN




TRAILER



CAPTURAS










MEDIAINFO

Código:
General
Unique ID                                : 332578814410385181815813087593211958765 (0xFA3459897D5E1F4EB9A414CA2C2915ED)
Format                                   : Matroska
Format version                           : Version 4
File size                                : 4.20 GiB
Duration                                 : 1 h 20 min
Overall bit rate                         : 7 516 kb/s
Encoded date                             : UTC 2020-04-14 15:43:30
Writing application                      : mkvmerge v32.0.0 ('Astral Progressions') 64-bit
Writing library                          : libebml v1.3.7 + libmatroska v1.5.0

Video
ID                                       : 1
Format                                   : AVC
Format/Info                              : Advanced Video Codec
Format profile                           : High@L4
Format settings                          : CABAC / 4 Ref Frames
Format settings, CABAC                   : Yes
Format settings, Reference frames        : 4 frames
Codec ID                                 : V_MPEG4/ISO/AVC
Duration                                 : 1 h 20 min
Bit rate mode                            : Constant
Bit rate                                 : 6 490 kb/s
Nominal bit rate                         : 10 000 kb/s
Width                                    : 1 920 pixels
Height                                   : 1 080 pixels
Display aspect ratio                     : 16:9
Frame rate mode                          : Constant
Frame rate                               : 23.976 (24000/1001) FPS
Color space                              : YUV
Chroma subsampling                       : 4:2:0
Bit depth                                : 8 bits
Scan type                                : Progressive
Bits/(Pixel*Frame)                       : 0.131
Stream size                              : 3.63 GiB (86%)
Title                                    : AMZN WEB-DL
Language                                 : English
Default                                  : Yes
Forced                                   : No
Color range                              : Limited
Color primaries                          : BT.709
Transfer characteristics                 : BT.709
Matrix coefficients                      : BT.709

Audio #1
ID                                       : 2
Format                                   : AC-3
Format/Info                              : Audio Coding 3
Commercial name                          : Dolby Digital
Codec ID                                 : A_AC3
Duration                                 : 1 h 19 min
Bit rate mode                            : Constant
Bit rate                                 : 384 kb/s
Channel(s)                               : 6 channels
Channel layout                           : L R C LFE Ls Rs
Sampling rate                            : 48.0 kHz
Frame rate                               : 31.250 FPS (1536 SPF)
Compression mode                         : Lossy
Stream size                              : 220 MiB (5%)
Title                                    : Latino 5.1
Language                                 : Spanish
Service kind                             : Complete Main
Default                                  : Yes
Forced                                   : Yes

Audio #2
ID                                       : 3
Format                                   : E-AC-3
Format/Info                              : Enhanced AC-3
Commercial name                          : Dolby Digital Plus
Codec ID                                 : A_EAC3
Duration                                 : 1 h 20 min
Bit rate mode                            : Constant
Bit rate                                 : 640 kb/s
Channel(s)                               : 6 channels
Channel layout                           : L R C LFE Ls Rs
Sampling rate                            : 48.0 kHz
Frame rate                               : 31.250 FPS (1536 SPF)
Compression mode                         : Lossy
Stream size                              : 367 MiB (9%)
Language                                 : English
Service kind                             : Complete Main
Default                                  : No
Forced                                   : No

Text #1
ID                                       : 4
Format                                   : UTF-8
Codec ID                                 : S_TEXT/UTF8
Codec ID/Info                            : UTF-8 Plain Text
Duration                                 : 18 min 22 s
Bit rate                                 : 1 b/s
Count of elements                        : 6
Stream size                              : 229 Bytes (0%)
Title                                    : Forzados
Language                                 : Spanish
Default                                  : Yes
Forced                                   : Yes

Text #2
ID                                       : 5
Format                                   : UTF-8
Codec ID                                 : S_TEXT/UTF8
Codec ID/Info                            : UTF-8 Plain Text
Duration                                 : 1 h 17 min
Bit rate                                 : 39 b/s
Count of elements                        : 856
Stream size                              : 22.2 KiB (0%)
Title                                    : Completos
Language                                 : Spanish
Default                                  : No
Forced                                   : No

Text #3
ID                                       : 6
Format                                   : UTF-8
Codec ID                                 : S_TEXT/UTF8
Codec ID/Info                            : UTF-8 Plain Text
Duration                                 : 1 h 17 min
Bit rate                                 : 38 b/s
Count of elements                        : 868
Stream size                              : 21.6 KiB (0%)
Language                                 : English
Default                                  : No
Forced                                   : No
CONTRASEÑA




DESCARGAR

Todos los links son Intercambiables




[Hidden content]




[Hidden content]




[Hidden content]




[Hidden content]



[Hidden content]
gracias por e aporte
 

cripp

Well-known member
Registrado
27 Ago 2012
Mensajes
8,059
Puntos de reacción
463
Puntos
113
Gracias por compartir
 

galiel38

Active member
Registrado
28 Sep 2012
Mensajes
682
Puntos de reacción
78
Puntos
28
Edad
32
Muchas gracias por compartirnos esta película.
 

kerna

Member
Miembro VIP
Registrado
21 Sep 2012
Mensajes
543
Puntos de reacción
11
Puntos
18



SINOPSIS

Basado en el popular videojuego creado por Ed Boon y John Tovias, Mortal Kombat Legends: Scorpion’s Revenge pone el foco en un torneo único que se celebra una vez por generación y en el que se enfrentan los campeones de distintos reinos. El ganador determinará el destino de la Tierra y de sus habitantes.

MÁS INFORMACIÓN




TRAILER



CAPTURAS










MEDIAINFO

Código:
General
Unique ID                                : 332578814410385181815813087593211958765 (0xFA3459897D5E1F4EB9A414CA2C2915ED)
Format                                   : Matroska
Format version                           : Version 4
File size                                : 4.20 GiB
Duration                                 : 1 h 20 min
Overall bit rate                         : 7 516 kb/s
Encoded date                             : UTC 2020-04-14 15:43:30
Writing application                      : mkvmerge v32.0.0 ('Astral Progressions') 64-bit
Writing library                          : libebml v1.3.7 + libmatroska v1.5.0

Video
ID                                       : 1
Format                                   : AVC
Format/Info                              : Advanced Video Codec
Format profile                           : High@L4
Format settings                          : CABAC / 4 Ref Frames
Format settings, CABAC                   : Yes
Format settings, Reference frames        : 4 frames
Codec ID                                 : V_MPEG4/ISO/AVC
Duration                                 : 1 h 20 min
Bit rate mode                            : Constant
Bit rate                                 : 6 490 kb/s
Nominal bit rate                         : 10 000 kb/s
Width                                    : 1 920 pixels
Height                                   : 1 080 pixels
Display aspect ratio                     : 16:9
Frame rate mode                          : Constant
Frame rate                               : 23.976 (24000/1001) FPS
Color space                              : YUV
Chroma subsampling                       : 4:2:0
Bit depth                                : 8 bits
Scan type                                : Progressive
Bits/(Pixel*Frame)                       : 0.131
Stream size                              : 3.63 GiB (86%)
Title                                    : AMZN WEB-DL
Language                                 : English
Default                                  : Yes
Forced                                   : No
Color range                              : Limited
Color primaries                          : BT.709
Transfer characteristics                 : BT.709
Matrix coefficients                      : BT.709

Audio #1
ID                                       : 2
Format                                   : AC-3
Format/Info                              : Audio Coding 3
Commercial name                          : Dolby Digital
Codec ID                                 : A_AC3
Duration                                 : 1 h 19 min
Bit rate mode                            : Constant
Bit rate                                 : 384 kb/s
Channel(s)                               : 6 channels
Channel layout                           : L R C LFE Ls Rs
Sampling rate                            : 48.0 kHz
Frame rate                               : 31.250 FPS (1536 SPF)
Compression mode                         : Lossy
Stream size                              : 220 MiB (5%)
Title                                    : Latino 5.1
Language                                 : Spanish
Service kind                             : Complete Main
Default                                  : Yes
Forced                                   : Yes

Audio #2
ID                                       : 3
Format                                   : E-AC-3
Format/Info                              : Enhanced AC-3
Commercial name                          : Dolby Digital Plus
Codec ID                                 : A_EAC3
Duration                                 : 1 h 20 min
Bit rate mode                            : Constant
Bit rate                                 : 640 kb/s
Channel(s)                               : 6 channels
Channel layout                           : L R C LFE Ls Rs
Sampling rate                            : 48.0 kHz
Frame rate                               : 31.250 FPS (1536 SPF)
Compression mode                         : Lossy
Stream size                              : 367 MiB (9%)
Language                                 : English
Service kind                             : Complete Main
Default                                  : No
Forced                                   : No

Text #1
ID                                       : 4
Format                                   : UTF-8
Codec ID                                 : S_TEXT/UTF8
Codec ID/Info                            : UTF-8 Plain Text
Duration                                 : 18 min 22 s
Bit rate                                 : 1 b/s
Count of elements                        : 6
Stream size                              : 229 Bytes (0%)
Title                                    : Forzados
Language                                 : Spanish
Default                                  : Yes
Forced                                   : Yes

Text #2
ID                                       : 5
Format                                   : UTF-8
Codec ID                                 : S_TEXT/UTF8
Codec ID/Info                            : UTF-8 Plain Text
Duration                                 : 1 h 17 min
Bit rate                                 : 39 b/s
Count of elements                        : 856
Stream size                              : 22.2 KiB (0%)
Title                                    : Completos
Language                                 : Spanish
Default                                  : No
Forced                                   : No

Text #3
ID                                       : 6
Format                                   : UTF-8
Codec ID                                 : S_TEXT/UTF8
Codec ID/Info                            : UTF-8 Plain Text
Duration                                 : 1 h 17 min
Bit rate                                 : 38 b/s
Count of elements                        : 868
Stream size                              : 21.6 KiB (0%)
Language                                 : English
Default                                  : No
Forced                                   : No
CONTRASEÑA




DESCARGAR

Todos los links son Intercambiables




[Hidden content]




[Hidden content]




[Hidden content]




[Hidden content]



[Hidden content]
gracias
 

flujo

Well-known member
Registrado
28 Dic 2014
Mensajes
6,956
Puntos de reacción
228
Puntos
83



SINOPSIS

Basado en el popular videojuego creado por Ed Boon y John Tovias, Mortal Kombat Legends: Scorpion’s Revenge pone el foco en un torneo único que se celebra una vez por generación y en el que se enfrentan los campeones de distintos reinos. El ganador determinará el destino de la Tierra y de sus habitantes.

MÁS INFORMACIÓN




TRAILER



CAPTURAS










MEDIAINFO

Código:
General
Unique ID                                : 332578814410385181815813087593211958765 (0xFA3459897D5E1F4EB9A414CA2C2915ED)
Format                                   : Matroska
Format version                           : Version 4
File size                                : 4.20 GiB
Duration                                 : 1 h 20 min
Overall bit rate                         : 7 516 kb/s
Encoded date                             : UTC 2020-04-14 15:43:30
Writing application                      : mkvmerge v32.0.0 ('Astral Progressions') 64-bit
Writing library                          : libebml v1.3.7 + libmatroska v1.5.0

Video
ID                                       : 1
Format                                   : AVC
Format/Info                              : Advanced Video Codec
Format profile                           : High@L4
Format settings                          : CABAC / 4 Ref Frames
Format settings, CABAC                   : Yes
Format settings, Reference frames        : 4 frames
Codec ID                                 : V_MPEG4/ISO/AVC
Duration                                 : 1 h 20 min
Bit rate mode                            : Constant
Bit rate                                 : 6 490 kb/s
Nominal bit rate                         : 10 000 kb/s
Width                                    : 1 920 pixels
Height                                   : 1 080 pixels
Display aspect ratio                     : 16:9
Frame rate mode                          : Constant
Frame rate                               : 23.976 (24000/1001) FPS
Color space                              : YUV
Chroma subsampling                       : 4:2:0
Bit depth                                : 8 bits
Scan type                                : Progressive
Bits/(Pixel*Frame)                       : 0.131
Stream size                              : 3.63 GiB (86%)
Title                                    : AMZN WEB-DL
Language                                 : English
Default                                  : Yes
Forced                                   : No
Color range                              : Limited
Color primaries                          : BT.709
Transfer characteristics                 : BT.709
Matrix coefficients                      : BT.709

Audio #1
ID                                       : 2
Format                                   : AC-3
Format/Info                              : Audio Coding 3
Commercial name                          : Dolby Digital
Codec ID                                 : A_AC3
Duration                                 : 1 h 19 min
Bit rate mode                            : Constant
Bit rate                                 : 384 kb/s
Channel(s)                               : 6 channels
Channel layout                           : L R C LFE Ls Rs
Sampling rate                            : 48.0 kHz
Frame rate                               : 31.250 FPS (1536 SPF)
Compression mode                         : Lossy
Stream size                              : 220 MiB (5%)
Title                                    : Latino 5.1
Language                                 : Spanish
Service kind                             : Complete Main
Default                                  : Yes
Forced                                   : Yes

Audio #2
ID                                       : 3
Format                                   : E-AC-3
Format/Info                              : Enhanced AC-3
Commercial name                          : Dolby Digital Plus
Codec ID                                 : A_EAC3
Duration                                 : 1 h 20 min
Bit rate mode                            : Constant
Bit rate                                 : 640 kb/s
Channel(s)                               : 6 channels
Channel layout                           : L R C LFE Ls Rs
Sampling rate                            : 48.0 kHz
Frame rate                               : 31.250 FPS (1536 SPF)
Compression mode                         : Lossy
Stream size                              : 367 MiB (9%)
Language                                 : English
Service kind                             : Complete Main
Default                                  : No
Forced                                   : No

Text #1
ID                                       : 4
Format                                   : UTF-8
Codec ID                                 : S_TEXT/UTF8
Codec ID/Info                            : UTF-8 Plain Text
Duration                                 : 18 min 22 s
Bit rate                                 : 1 b/s
Count of elements                        : 6
Stream size                              : 229 Bytes (0%)
Title                                    : Forzados
Language                                 : Spanish
Default                                  : Yes
Forced                                   : Yes

Text #2
ID                                       : 5
Format                                   : UTF-8
Codec ID                                 : S_TEXT/UTF8
Codec ID/Info                            : UTF-8 Plain Text
Duration                                 : 1 h 17 min
Bit rate                                 : 39 b/s
Count of elements                        : 856
Stream size                              : 22.2 KiB (0%)
Title                                    : Completos
Language                                 : Spanish
Default                                  : No
Forced                                   : No

Text #3
ID                                       : 6
Format                                   : UTF-8
Codec ID                                 : S_TEXT/UTF8
Codec ID/Info                            : UTF-8 Plain Text
Duration                                 : 1 h 17 min
Bit rate                                 : 38 b/s
Count of elements                        : 868
Stream size                              : 21.6 KiB (0%)
Language                                 : English
Default                                  : No
Forced                                   : No
CONTRASEÑA




DESCARGAR

Todos los links son Intercambiables




[Hidden content]




[Hidden content]




[Hidden content]




[Hidden content]



[Hidden content]
gracias
 

Usuarios Que Están Viendo Este Tema (Total: 1, Miembros: 0, Invitados: 1)

Arriba