• Este aviso va dirigido a todos los nuevos miembros recien llegados a Club-HD. Les recordamos que la direccion URL de este sitio web es , asi que deben acceder únicamente por esta URL. Sean todos bienvenidos al Club!

Mulan (2020) 1080p DSNY+ WEB-DL HEVC Dual Latino-Inglés [Subt. Esp] (Aventuras. Acción)

Bebesaurio

Novio de Vizard
Miembro del Staff
Moderador
Uploader
Registrado
12 Mar 2018
Mensajes
609
Puntos de reacción
15,025
Puntos
93
Edad
21




SINOPSIS

Narra la historia de Mulán, una intrépida joven lo arriesga todo por amor a su familia y a su país hasta convertirse en una de las mayores guerreras de la historia de China. Cuando el emperador de China decreta que un hombre de cada familia debe servir en el Ejército Imperial para defender al país de los invasores del norte, Hua Mulán, la hija mayor de un condecorado guerrero, decide ocupar el lugar de su padre enfermo. Haciéndose pasar por un hombre, Hua Jun, se enfrenta a constantes desafíos y deberá aprender a canalizar su fuerza interior y a aceptar su verdadero potencial. Un viaje épico que la convertirá en una reconocida guerrera y le permitirá ganarse el respeto de una nación agradecida... y de un padre orgulloso. Remake del clásico de Disney.

TRAILER




MEDIA INFO


General
Unique ID : 165339992950273086008697130498075062489 (0x7C63530820B82B30FE9A354839BAF0D9)
Format : Matroska
Format version : Version 4
File size : 6.17 GiB
Duration : 1 h 56 min
Overall bit rate : 7 566 kb/s
Movie name : Mulan (2020) 1080p
Encoded date : UTC 2020-09-04 21:59:58
Writing application : mkvmerge v49.0.0 ('Sick Of Losing Soulmates') 64-bit
Writing library : libebml v1.4.0 + libmatroska v1.6.1
Cover : Yes
Attachments : cover.jpg

Video
ID : 1
Format : HEVC
Format/Info : High Efficiency Video Coding
Format profile : Main 10@L4@High
Codec ID : V_MPEGH/ISO/HEVC
Duration : 1 h 55 min
Bit rate : 6 381 kb/s
Width : 1 920 pixels
Height : 1 080 pixels
Display aspect ratio : 16:9
Frame rate mode : Constant
Frame rate : 23.976 (24000/1001) FPS
Color space : YUV
Chroma subsampling : 4:2:0
Bit depth : 10 bits
Bits/(Pixel*Frame) : 0.128
Stream size : 5.13 GiB (83%)
Title : Main 10@L4@High / Bit rate: 6381 kb/s
Language : English
Default : Yes
Forced : No
Color range : Limited
Color primaries : BT.709
Transfer characteristics : BT.709
Matrix coefficients : BT.709

Audio #1
ID : 2
Format : E-AC-3
Format/Info : Enhanced AC-3
Commercial name : Dolby Digital Plus
Codec ID : A_EAC3
Duration : 1 h 56 min
Bit rate mode : Constant
Bit rate : 256 kb/s
Channel(s) : 6 channels
Channel layout : L R C LFE Ls Rs
Sampling rate : 48.0 kHz
Frame rate : 31.250 FPS (1536 SPF)
Compression mode : Lossy
Stream size : 214 MiB (3%)
Title : Español Latino [E-AC3 5.1]
Language : Spanish
Service kind : Complete Main
Default : Yes
Forced : Yes

Audio #2
ID : 3
Format : AC-3
Format/Info : Audio Coding 3
Commercial name : Dolby Digital
Codec ID : A_AC3
Duration : 1 h 56 min
Bit rate mode : Constant
Bit rate : 256 kb/s
Channel(s) : 6 channels
Channel layout : L R C LFE Ls Rs
Sampling rate : 48.0 kHz
Frame rate : 31.250 FPS (1536 SPF)
Compression mode : Lossy
Stream size : 214 MiB (3%)
Title : Español Latino [AC3 5.1]
Language : Spanish
Service kind : Complete Main
Default : No
Forced : No

Audio #3
ID : 4
Format : E-AC-3 JOC
Format/Info : Enhanced AC-3 with Joint Object Coding
Commercial name : Dolby Digital Plus with Dolby Atmos
Codec ID : A_EAC3
Duration : 1 h 55 min
Bit rate mode : Constant
Bit rate : 768 kb/s
Channel(s) : 6 channels
Channel layout : L R C LFE Ls Rs
Sampling rate : 48.0 kHz
Frame rate : 31.250 FPS (1536 SPF)
Compression mode : Lossy
Stream size : 633 MiB (10%)
Title : English [E-AC3 5.1 Atmos]
Language : English
Service kind : Complete Main
Default : No
Forced : No
Complexity index : 16
Number of dynamic objects : 15
Bed channel count : 1 channel
Bed channel configuration : LFE

Text #1
ID : 5
Format : UTF-8
Codec ID : S_TEXT/UTF8
Codec ID/Info : UTF-8 Plain Text
Duration : 3 min 21 s
Bit rate : 2 b/s
Count of elements : 3
Stream size : 73.0 Bytes (0%)
Title : Forzados [SRT]
Language : Spanish
Default : Yes
Forced : Yes

Text #2
ID : 6
Format : UTF-8
Codec ID : S_TEXT/UTF8
Codec ID/Info : UTF-8 Plain Text
Duration : 1 h 43 min
Bit rate : 31 b/s
Count of elements : 783
Stream size : 24.0 KiB (0%)
Title : [Completos]
Language : Spanish
Default : No
Forced : No



CAPTURAS










DESCARGA

ENLACES VIP


Enlaces de Mega y Google Drive solo disponibles para Miembros VIP

Compra tu Membresía VIP y apoya a Club-HD!

ATENCIÓN! Tenemos TODO el material de Club-HD disponible por Mega y Google Drive, enlaces 100% activos y online hasta la fecha

Llévate tus cuentas Mega PRO II gratis con tu membresía VIP!
Todos los posts vivos con links de Mega y Google Drive.
Todo el material de Club-HD desbloqueado y sin publicidad.

Click Aquí para más información.

Enlaces de Mega y Google Drive solo disponibles para Miembros VIP

Compra tu Membresía VIP y apoya a Club-HD!

ATENCIÓN! Tenemos TODO el material de Club-HD disponible por Mega y Google Drive, enlaces 100% activos y online hasta la fecha

Llévate tus cuentas Mega PRO II gratis con tu membresía VIP!
Todos los posts vivos con links de Mega y Google Drive.
Todo el material de Club-HD desbloqueado y sin publicidad.

Click Aquí para más información.


ENLACES FREE



Para ver este contenido oculto, debes dar click en una de las siguientes reacciones: Like Like, Love Love, Haha Haha, Wow Wow, Sad Sad, Angry Angry

Para ver este contenido oculto, debes dar click en una de las siguientes reacciones: Like Like, Love Love, Haha Haha, Wow Wow, Sad Sad, Angry Angry

Para ver este contenido oculto, debes dar click en una de las siguientes reacciones: Like Like, Love Love, Haha Haha, Wow Wow, Sad Sad, Angry Angry
CONTRASEÑA
Código:
www.club-hd.com
 
Última edición:

lordvader

Member
Miembro VIP
Registrado
28 Ago 2012
Mensajes
427
Puntos de reacción
24
Puntos
18
Edad
48
Muchas gracias!!
 

Puertodown

Active member
Registrado
3 Dic 2016
Mensajes
635
Puntos de reacción
27
Puntos
28
Muchas gracias por la pelicula pero pide contraseña para descomprimir y no la veo por ningun lado
 

emaro88

New member
Registrado
26 Feb 2019
Mensajes
19
Puntos de reacción
0
Puntos
1
Sos unos CRACKS!!!! Muchas Gracias!
 

cripp

Well-known member
Registrado
27 Ago 2012
Mensajes
8,196
Puntos de reacción
495
Puntos
113
Gracias por compartir
 

Usuarios Que Están Viendo Este Tema (Total: 1, Miembros: 0, Invitados: 1)

Quien Leyó Este Tema (Total Miembros: 247)

Arriba