Nacho libre (2006) 720p BDRip Dual Latino-Ingles [Subt. Esp-Ing] (Comedia)

Maestro Revolver

Well-known member
Miembro del Staff
Administrador
Registro
9 Ago 2012
Mensajes
3.569
Reacciones
59.361
Puntos
113

Reputation:









TÍTULO ORIGINAL: Nacho libre
AÑO: 2006
DURACIÓN: 100 min.
PAÍS: USA
DIRECTOR: Jared Hess
GUIÓN: Jared Hess, Mike White, Jerusha Hess
REPARTO: Jack Black, Héctor Jiménez, Ana de la Reguera, Richard Montoya
PRODUCTORA: Paramount Pictures
GÉNERO: Comedia | Wrestling/Lucha libre
: http://www.imdb.com/title/tt0457510/






Nacho es un hombre sin talento. Se crió en un monasterio en México del que ahora es el cocinero, pero no parece encajar. Nacho quiere a los huérfanos para los que cocina, pero todo lo que hace sabe fatal. Según él, porque tiene una pésima materia prima. Se da cuenta de que debe ingeniárselas para cocinar algo mejor para "los pobres huérfanos que no tienen nada" (... y, de paso, impresionar a la preciosa hermana Encarnación). Se le ocurre la idea de ganar dinero convirtiéndose en luchador de lucha libre y descubre que tiene un don innato. Se une a un compañero poco convencional, Esqueleto, un hombre delgadísimo, y por primera vez siente que tiene un objetivo en la vida. Pero las monjas del monasterio están totalmente en contra de la lucha libre y a Nacho no le queda más remedio que llevar una doble vida. Esconde su identidad detrás de una máscara azul y se enfrenta a los luchadores más famosos de México, decidido a que los huérfanos vivan mejor.
























La pelicula NO tiene ninguna marca... solo colocamos el nombre de esta web en las capturas






Código:
General
Format                                   : Matroska
Format version                           : Version 2
File size                                : 3.03 GiB
Duration                                 : 1h 32mn
Overall bit rate                         : 4 701 Kbps
Movie name                               : www.club-hd.com
Encoded date                             : UTC 2013-02-25 20:15:29
Writing application                      : mkvmerge v5.2.1 ('A Far Off Place') built on Jan  2 2012 23:21:10
Writing library                          : libebml v1.2.3 + libmatroska v1.3.0

Video
ID                                       : 1
Format                                   : AVC
Format/Info                              : Advanced Video Codec
Format profile                           : High@L4.0
Format settings, CABAC                   : Yes
Format settings, ReFrames                : 9 frames
Codec ID                                 : V_MPEG4/ISO/AVC
Bit rate                                 : 4 000 Kbps
Width                                    : 1 280 pixels
Height                                   : 720 pixels
Display aspect ratio                     : 16:9
Frame rate mode                          : Variable
Color space                              : YUV
Chroma subsampling                       : 4:2:0
Bit depth                                : 8 bits
Scan type                                : Progressive
Title                                    : www.club-hd.com
Writing library                          : x264 core 120
Language                                 : English
Default                                  : Yes
Forced                                   : No
Color primaries                          : BT.709
Transfer characteristics                 : BT.709
Matrix coefficients                      : BT.709

Audio #1
ID                                       : 2
Format                                   : AC-3
Format/Info                              : Audio Coding 3
Mode extension                           : CM (complete main)
Format settings, Endianness              : Big
Codec ID                                 : A_AC3
Duration                                 : 1h 32mn
Bit rate mode                            : Constant
Bit rate                                 : 256 Kbps
Channel(s)                               : 2 channels
Channel positions                        : Front: L R
Sampling rate                            : 48.0 KHz
Bit depth                                : 16 bits
Compression mode                         : Lossy
Stream size                              : 169 MiB (5%)
Title                                    : www.club-hd.com  >>  Latino
Language                                 : Spanish
Default                                  : Yes
Forced                                   : No

Audio #2
ID                                       : 3
Format                                   : AC-3
Format/Info                              : Audio Coding 3
Mode extension                           : CM (complete main)
Format settings, Endianness              : Big
Codec ID                                 : A_AC3
Duration                                 : 1h 32mn
Bit rate mode                            : Constant
Bit rate                                 : 448 Kbps
Channel(s)                               : 6 channels
Channel positions                        : Front: L C R, Side: L R, LFE
Sampling rate                            : 48.0 KHz
Bit depth                                : 16 bits
Compression mode                         : Lossy
Stream size                              : 295 MiB (10%)
Title                                    : www.club-hd.com  >>  Inglés
Language                                 : English
Default                                  : No
Forced                                   : No

Text #1
ID                                       : 4
Format                                   : UTF-8
Codec ID                                 : S_TEXT/UTF8
Codec ID/Info                            : UTF-8 Plain Text
Language                                 : Spanish
Default                                  : No
Forced                                   : No

Text #2
ID                                       : 5
Format                                   : UTF-8
Codec ID                                 : S_TEXT/UTF8
Codec ID/Info                            : UTF-8 Plain Text
Language                                 : English
Default                                  : No
Forced                                   : No

Menu
00:00:00.054                             : en:00:00:00.054 / en:00:00:00.054 / en:00:00:00.054










Enlaces de Mega y Fireload solo disponibles para Miembros VIP

Compra tu Membresía VIP y apoya a Club-HD!

ATENCIÓN! Tenemos TODO el material de Club-HD disponible por Mega y Fireload, enlaces 100% activos y online hasta la fecha

Llévate tus cuentas Mega PRO II gratis con tu membresía VIP!
Todos los posts vivos con links de Mega y Fireload.
Todo el material de Club-HD desbloqueado y sin publicidad.

Click Aquí para más información.




Enlaces de Mega y Fireload solo disponibles para Miembros VIP

Compra tu Membresía VIP y apoya a Club-HD!

ATENCIÓN! Tenemos TODO el material de Club-HD disponible por Mega y Fireload, enlaces 100% activos y online hasta la fecha

Llévate tus cuentas Mega PRO II gratis con tu membresía VIP!
Todos los posts vivos con links de Mega y Fireload.
Todo el material de Club-HD desbloqueado y sin publicidad.

Click Aquí para más información.



Para ver este contenido oculto, debes dar click en una de las siguientes reacciones : Like Like, Love Love, Haha Haha, Wow Wow, Sad Sad, Angry Angry

 
Última edición:

zacygal

Well-known member
Registro
3 Sep 2012
Mensajes
1.515
Reacciones
1.536
Puntos
113
Edad
49

Reputation:

fácil me quedo too ste sábado descargando las buenas películas que nos das Revolver y Max, se agradece ...
 

Rob Stark

New member
Registro
28 Ago 2012
Mensajes
243
Reacciones
29
Puntos
0
Edad
31

Reputation:

Esta peli esta muuy divertida y no la allaba pero como siempre solo en Club HD, el mejor lugar de pelis HD
 

Lunaa

Member
Registro
17 Oct 2012
Mensajes
223
Reacciones
7
Puntos
18

Reputation:

Cuantos aportes esta semana! :dplgar:
 

Ezze

Well-known member
Miembro del Staff
Súper Moderador
Registro
28 Ago 2012
Mensajes
1.663
Reacciones
1.790
Puntos
113
Ubicación
En la Torre de Observación

Reputation:

S_T1S_T1S_T1 Que buena peli!! Una gran comedia!! Sos fantástico Revolver :D Gracias por darnos lo mejor del HD, en todos los géneros. Saludos guit4r_3
 

tigre

New member
Registro
21 Sep 2012
Mensajes
155
Reacciones
6
Puntos
0

Reputation:

genial esta pelicula desde hace rato que la queria ver. muchas gracias
 

Usuarios Que Están Viendo Este Tema (Total: 1, Miembros: 0, Invitados: 1)

Arriba