• Este aviso va dirigido a todos los nuevos miembros recien llegados a Club-HD. Les recordamos que la direccion URL de este sitio web es , asi que deben acceder únicamente por esta URL. Sean todos bienvenidos al Club!

Next Door (2005) 1080p BDRip Dual Castellano-Noruego [Subt. Esp] (Thriller/Terror)

ᒍᗩᑕᕮ

Well-known member
Uploader
Registrado
3 Jun 2020
Mensajes
31
Puntos de reacción
293
Puntos
53



TÍTULO ORIGINAL: Naboer
OTROS TÍTULOS: Next Door, La Otra Puerta, Drzwi Obok
AÑO: 2005
DURACIÓN: 75 min.
PAÍS:
Noruega
DIRECCIÓN: Pål Sletaune
GUION: Pål Sletaune
MÚSICA: Simon Boswell
FOTOGRAFÍA: John Andreas Andersen
REPARTO: Kristoffer Joner, Cecilie A. Mosli, Julia Schacht, Anna Bache-Wiig, Michael Nyqvist
PRODUCTORA: Coproducción Noruega-Dinamarca-Suecia; 4 1/2 Film, Columbia TriStar Nordisk Film Distributors A/S, Memfis Film
GÉNERO: Thriller/Terror | Thriller Psicológico/Amistad



John (Kristoffer Joner), que acaba de romper con su ex novia, conoce un día a las dos vecinas que viven en el apartamento contiguo al suyo, Anne (Cecilie Mosli) y Kim (Julia Schacht). La primera le cuenta que Kim es su hermana y que ha sufrido maltratos, pero esta lo niega todo y empieza a seducir a John.


Código:
General
Complete name                            : Next.Door.(Naboer).2005.BDRip.1080p.mkv
Format                                   : Matroska
Format version                           : Version 4
File size                                : 10.9 GiB
Duration                                 : 1 h 15 min
Overall bit rate                         : 20.7 Mb/s
Encoded date                             : UTC 2020-06-28 17:27:25
Writing application                      : mkvmerge v47.0.0 ('Black Flag') 64-bit
Writing library                          : libebml v1.3.10 + libmatroska v1.5.2
Encoder/Uploader                         : Jace
Web                                      : www.club-hd.com

Video
ID                                       : 1
Format                                   : AVC
Format/Info                              : Advanced Video Codec
Format profile                           : High@L4.1
Format settings                          : CABAC / 5 Ref Frames
Format settings, CABAC                   : Yes
Format settings, Reference frames        : 5 frames
Codec ID                                 : V_MPEG4/ISO/AVC
Duration                                 : 1 h 15 min
Bit rate                                 : 19.7 Mb/s
Width                                    : 1 920 pixels
Height                                   : 800 pixels
Display aspect ratio                     : 2.40:1
Frame rate mode                          : Constant
Frame rate                               : 23.976 (24000/1001) FPS
Color space                              : YUV
Chroma subsampling                       : 4:2:0
Bit depth                                : 8 bits
Scan type                                : Progressive
Bits/(Pixel*Frame)                       : 0.535
Stream size                              : 10.4 GiB (95%)
Title                                    : Naboer (2005)
Writing library                          : x264 core 157 r2935 545de2f
Encoding settings                        : cabac=1 / ref=5 / deblock=1:-1:-1 / analyse=0x3:0x113 / me=hex / subme=8 / psy=1 / psy_rd=1.00:0.15 / mixed_ref=1 / me_range=16 / chroma_me=1 / trellis=2 / 8x8dct=1 / cqm=0 / deadzone=21,11 / fast_pskip=1 / chroma_qp_offset=-3 / threads=12 / lookahead_threads=2 / sliced_threads=0 / nr=0 / decimate=1 / interlaced=0 / bluray_compat=0 / constrained_intra=0 / bframes=3 / b_pyramid=2 / b_adapt=1 / b_bias=0 / direct=3 / weightb=1 / open_gop=0 / weightp=2 / keyint=240 / keyint_min=24 / scenecut=40 / intra_refresh=0 / rc_lookahead=50 / rc=crf / mbtree=1 / crf=17.0 / qcomp=0.60 / qpmin=0 / qpmax=69 / qpstep=4 / vbv_maxrate=62500 / vbv_bufsize=78125 / crf_max=0.0 / nal_hrd=none / filler=0 / ip_ratio=1.40 / aq=1:1.00
Language                                 : Norwegian
Default                                  : Yes
Forced                                   : No
Color range                              : Limited
Color primaries                          : BT.709
Transfer characteristics                 : BT.709
Matrix coefficients                      : BT.709

Audio #1
ID                                       : 2
Format                                   : AC-3
Format/Info                              : Audio Coding 3
Commercial name                          : Dolby Digital
Codec ID                                 : A_AC3
Duration                                 : 1 h 15 min
Bit rate mode                            : Constant
Bit rate                                 : 256 kb/s
Channel(s)                               : 2 channels
Channel layout                           : L R
Sampling rate                            : 48.0 kHz
Frame rate                               : 31.250 FPS (1536 SPF)
Compression mode                         : Lossy
Delay relative to video                  : 2 s 0 ms
Stream size                              : 139 MiB (1%)
Title                                    : AC3 2.0 / Castellano
Language                                 : Spanish
Service kind                             : Complete Main
Default                                  : Yes
Forced                                   : No

Audio #2
ID                                       : 3
Format                                   : AC-3
Format/Info                              : Audio Coding 3
Commercial name                          : Dolby Digital
Codec ID                                 : A_AC3
Duration                                 : 1 h 15 min
Bit rate mode                            : Constant
Bit rate                                 : 640 kb/s
Channel(s)                               : 6 channels
Channel layout                           : L R C LFE Ls Rs
Sampling rate                            : 48.0 kHz
Frame rate                               : 31.250 FPS (1536 SPF)
Compression mode                         : Lossy
Stream size                              : 346 MiB (3%)
Title                                    : AC3 5.1 / Noruego
Language                                 : Norwegian
Service kind                             : Complete Main
Default                                  : No
Forced                                   : No

Text #1
ID                                       : 4
Format                                   : UTF-8
Codec ID                                 : S_TEXT/UTF8
Codec ID/Info                            : UTF-8 Plain Text
Duration                                 : 1 h 11 min
Bit rate                                 : 26 b/s
Count of elements                        : 491
Stream size                              : 13.8 KiB (0%)
Language                                 : Spanish
Default                                  : No
Forced                                   : No

Text #2
ID                                       : 5
Format                                   : PGS
Codec ID                                 : S_HDMV/PGS
Codec ID/Info                            : Picture based subtitle format used on BDs/HD-DVDs
Duration                                 : 1 h 11 min
Bit rate                                 : 98.5 kb/s
Count of elements                        : 2487
Stream size                              : 50.5 MiB (0%)
Language                                 : Japanese
Default                                  : No
Forced                                   : No

Menu
00:00:00.000                             : :Chapter 1
00:03:28.625                             : :Chapter 2
00:12:10.688                             : :Chapter 3
00:21:08.267                             : :Chapter 4
00:30:51.558                             : :Chapter 5
00:35:51.733                             : :Chapter 6
00:44:47.894                             : :Chapter 7
00:51:42.057                             : :Chapter 8
00:58:02.688                             : :Chapter 9
01:04:01.463                             : :Chapter 10
Subtítulo latino sincronizado línea a línea por Clasaase aquí y autoría 5.1 acá










ENLACES V.I.P


Enlaces de Mega y Google Drive solo disponibles para Miembros VIP

Compra tu Membresía VIP y apoya a Club-HD!

ATENCIÓN! Tenemos TODO el material de Club-HD disponible por Mega y Google Drive, enlaces 100% activos y online hasta la fecha

Llévate tus cuentas Mega PRO II gratis con tu membresía VIP!
Todos los posts vivos con links de Mega y Google Drive.
Todo el material de Club-HD desbloqueado y sin publicidad.

Click Aquí para más información.

Enlaces de Mega y Google Drive solo disponibles para Miembros VIP

Compra tu Membresía VIP y apoya a Club-HD!

ATENCIÓN! Tenemos TODO el material de Club-HD disponible por Mega y Google Drive, enlaces 100% activos y online hasta la fecha

Llévate tus cuentas Mega PRO II gratis con tu membresía VIP!
Todos los posts vivos con links de Mega y Google Drive.
Todo el material de Club-HD desbloqueado y sin publicidad.

Click Aquí para más información.

ENLACES FREE


Para ver este contenido oculto, debes dar click en una de las siguientes reacciones: Like Like, Love Love, Haha Haha, Wow Wow, Sad Sad, Angry Angry

Para ver este contenido oculto, debes dar click en una de las siguientes reacciones: Like Like, Love Love, Haha Haha, Wow Wow, Sad Sad, Angry Angry

Para ver este contenido oculto, debes dar click en una de las siguientes reacciones: Like Like, Love Love, Haha Haha, Wow Wow, Sad Sad, Angry Angry
CONTRASEÑA
www.club-hd.com
 
Última edición:

clasaase

Clasaase
Miembro del Staff
Colaborador
Moderador
Miembro VIP
Registrado
3 Sep 2012
Mensajes
2,304
Puntos de reacción
702
Puntos
113
Ubicación
Chile
Se ve muy interesante esta cinta. No la conocía. Cansado de balazos y efectos especiales, esto si llama la atención. Gracias por postearla. Veremos que tal.
 

FUNKSW

Active member
Miembro VIP
Registrado
12 Dic 2015
Mensajes
366
Puntos de reacción
156
Puntos
43
Edad
42
Esta sería mi segunda película que vería producida en Noruega. La verdad, es que los Europeos tienen su propio ritmo y al final, muchas de sus creaciones filmicas se van por el lado de la trama. Ojalá ésta sea una de esas donde la trama es fenomenal. De antemano, gracias por la subida.
 

Usuarios Que Están Viendo Este Tema (Total: 1, Miembros: 0, Invitados: 1)

Arriba