Nickelback: Live at Sturgis 2006 (2009) 720p BDRip [AC3 2.0] [DTS] (Concierto)

Max

Admin
Miembro del Staff
Administrador
Miembro VIP
Registro
8 Ago 2012
Mensajes
6.072
Ubicación
Disco C








En 2006 Nickelback subió al escenario en frente de una multitud de 35.000 en Rockin The Rally, la parte musical del famoso Rally Sturgis de bicicletas en Dakota del Sur, como parte de su gira en apoyo del álbum "All The Right Reasons". Este Blu-ray captura el evento completo a través del concierto en vivo y material adicional que muestra la preparación de Nickelback para el show y un vistazo al mismísimo rally de motocicletas, el más grande del mundo. El concierto cuenta con todos sus éxitos del Reino Unido hasta ese momento. Esta es la primera vez que el Blu-ray ha estado disponible fuera de Norteamérica.






01. Animals
02. Woke Up This morning
03. Photograph
04. Because of You
05. Far Away
06. Never Again
07. Savin' Me
08. Someday
09. Side of a Bullet
10. How You Remind Me
11. Too Bad
12. Figured You Out



























Código:
General
Complete name                            : Nickelback - Live at Sturgis 2006 (2009) 720p BDRip [AC3 2.0] [DTS].mkv
Format                                   : Matroska
Format version                           : Version 2
File size                                : 2.78 GiB
Duration                                 : 1h 5mn
Overall bit rate                         : 6 058 Kbps
Movie name                               : www.club-hd.com --> Nickelback: Live at Sturgis 2006 (2009) 720p BDRip [AC3 2.0] [DTS]
Encoded date                             : UTC 2013-11-20 22:13:58
Writing application                      : mkvmerge v5.8.0 ('No Sleep / Pillow') built on Sep  2 2012 15:37:04
Writing library                          : libebml v1.2.3 + libmatroska v1.3.0

Video
ID                                       : 1
Format                                   : AVC
Format/Info                              : Advanced Video Codec
Format profile                           : High@L4.1
Format settings, CABAC                   : Yes
Format settings, ReFrames                : 6 frames
Muxing mode                              : Header stripping
Codec ID                                 : V_MPEG4/ISO/AVC
Duration                                 : 1h 5mn
Bit rate                                 : 5 000 Kbps
Width                                    : 1 280 pixels
Height                                   : 720 pixels
Display aspect ratio                     : 16:9
Frame rate mode                          : Constant
Frame rate                               : 23.976 fps
Color space                              : YUV
Chroma subsampling                       : 4:2:0
Bit depth                                : 8 bits
Scan type                                : Progressive
Bits/(Pixel*Frame)                       : 0.226
Stream size                              : 2.20 GiB (79%)
Title                                    : Nickelback: Live at Sturgis 2006 (2009) 720p BDRip [AC3 2.0] [DTS]
Writing library                          : x264 core 120
Encoding settings                        : cabac=1 / ref=7 / deblock=1:-2:-2 / analyse=0x3:0x133 / me=umh / subme=10 / psy=1 / psy_rd=1.00:0.00 / mixed_ref=1 / me_range=24 / chroma_me=1 / trellis=2 / 8x8dct=1 / cqm=0 / deadzone=21,11 / fast_pskip=1 / chroma_qp_offset=-2 / threads=24 / sliced_threads=0 / nr=0 / decimate=1 / interlaced=0 / bluray_compat=0 / constrained_intra=0 / bframes=3 / b_pyramid=1 / b_adapt=1 / b_bias=0 / direct=1 / weightb=1 / open_gop=0 / weightp=2 / keyint=240 / keyint_min=24 / scenecut=40 / intra_refresh=0 / rc_lookahead=50 / rc=abr / mbtree=1 / bitrate=5000 / ratetol=1.0 / qcomp=0.60 / qpmin=3 / qpmax=69 / qpstep=4 / ip_ratio=1.40 / aq=1:1.00
Language                                 : English
Default                                  : Yes
Forced                                   : No
Color primaries                          : BT.709
Transfer characteristics                 : BT.709
Matrix coefficients                      : BT.709

Audio #1
ID                                       : 2
Format                                   : AC-3
Format/Info                              : Audio Coding 3
Mode extension                           : CM (complete main)
Format settings, Endianness              : Big
Muxing mode                              : Header stripping
Codec ID                                 : A_AC3
Duration                                 : 1h 5mn
Bit rate mode                            : Constant
Bit rate                                 : 384 Kbps
Channel(s)                               : 2 channels
Channel positions                        : Front: L R
Sampling rate                            : 48.0 KHz
Bit depth                                : 16 bits
Compression mode                         : Lossy
Stream size                              : 180 MiB (6%)
Title                                    : Nickelback: Live at Sturgis 2006 (2009) - Inglés AC3 2.0
Language                                 : English
Default                                  : Yes
Forced                                   : No

Audio #2
ID                                       : 3
Format                                   : DTS
Format/Info                              : Digital Theater Systems
Mode                                     : 16
Format settings, Endianness              : Big
Muxing mode                              : Header stripping
Codec ID                                 : A_DTS
Duration                                 : 1h 5mn
Bit rate mode                            : Constant
Bit rate                                 : 755 Kbps
Channel(s)                               : 6 channels
Channel positions                        : Front: L C R, Side: L R, LFE
Sampling rate                            : 48.0 KHz
Bit depth                                : 24 bits
Compression mode                         : Lossy
Stream size                              : 354 MiB (12%)
Title                                    : Nickelback: Live at Sturgis 2006 (2009) - Inglés DTS 5.1
Language                                 : English
Default                                  : No
Forced                                   : No








Enlaces de Mega y Google Drive solo disponibles para Miembros VIP

Compra tu Membresía VIP y apoya a Club-HD!

ATENCIÓN! Tenemos TODO el material de Club-HD disponible por Mega y Google Drive, enlaces 100% activos y online hasta la fecha

Llévate tus cuentas Mega PRO III gratis con tu membresía VIP!
Todos los posts vivos con links de Mega y Google Drive.
Todo el material de Club-HD desbloqueado y sin publicidad.

Click Aquí para más información.



Para ver este contenido oculto, debes dar click en una de las siguientes reacciones : Like Like, Love Love, Haha Haha, Wow Wow, Sad Sad, Angry Angry

 
Última edición:

DoomsDay Elite

Well-known member
Registro
5 Sep 2012
Mensajes
1.222
otra mega banda calidad del club y para ese entonces estaban en lo mas y mejor de su carrera como no recordar y aun escucho canciones como Savin' Me
How You Remind Me y Too Bad
 

Usuarios Que Están Viendo Este Tema (Total: 1, Miembros: 0, Invitados: 1)

Quién Leyó Este Tema (Total Miembros: 1)

Arriba