Night at the Museum: Battle of the Smithsonian (2009) m-1080p BDRip Dual Latino-Inglés [Subt. Esp] (Comedia. Fantástico)

Maestro Revolver

Well-known member
Miembro del Staff
Administrador
Registro
9 Ago 2012
Mensajes
3.567








TÍTULO ORIGINAL: Night at the Museum: Battle of the Smithsonian (Night at the Museum 2)
AÑO: 2009
DURACIÓN: 105 min.
PAÍS: USA
DIRECTOR: Shawn Levy
GUIÓN: Robert Ben Garant, Thomas Lennon
REPARTO: Ben Stiller, Amy Adams, Hank Azaria, Owen Wilson, Ricky Gervais, Robin Williams, Bill Hader, Steve Coogan, Christopher Guest, Jonah Hill, Jon Bernthal, Alain Chabat, Patrick Gallagher, Jake Cherry, Jay Baruchel, Craig Robinson, George Foreman, Ed Helms
PRODUCTORA: 20th Century Fox / 1492 Pictures / Museum Canada Productions
GÉNERO: Comedia. Fantástico | Secuela
: http://www.imdb.com/title/tt1078912/






El vigilante jurado Larry Daley (Ben Stiller) se ve obligado a decir adiós a todos sus amigos cuando deciden hacer el Museo de Ciencias Naturales más "interactivo" y sustituyen todas las figuras por hologramas. Sus amigos históricos son empaquetados y enviados a los archivos del famoso Smithsonian, en Washington, DC., el museo más grande del mundo. No han pasado ni 24 horas cuando Larry recibe una llamada de Jedediah, el cowboy en miniatura, y descubre que la tabla de Ahkmenrah ha sido extraviada y esto ha hecho que el Smithsonian cobre vida. Para salvar a sus amigos, Larry tendrá que viajar a Washington, DC y luchar contra Kahmunrah, Al Capone, Iván el Terrible y Napoleón que han planeado un complot para apoderarse de la tabla. En medio del caos, Larry hará nuevos amigos, como Amelia Earhart o Albert Einstein que le ayudarán a detener el complot y salvar el museo.
























La pelicula NO tiene ninguna marca... solo colocamos el nombre de esta web en las capturas






Código:
General
Format                                   : Matroska
Format version                           : Version 2
File size                                : 4.21 GiB
Duration                                 : 1h 44mn
Overall bit rate                         : 5 758 Kbps
Movie name                               : www.club-hd.com
Encoded date                             : UTC 2013-08-29 23:02:47
Writing application                      : mkvmerge v5.7.0 ('The Whirlwind') built on Jul  8 2012 20:08:51
Writing library                          : libebml v1.2.3 + libmatroska v1.3.0

Video
ID                                       : 1
Format                                   : AVC
Format/Info                              : Advanced Video Codec
Format profile                           : Main@L4.0
Format settings, CABAC                   : Yes
Format settings, ReFrames                : 4 frames
Codec ID                                 : V_MPEG4/ISO/AVC
Duration                                 : 1h 44mn
Bit rate                                 : 4 750 Kbps
Width                                    : 1 920 pixels
Height                                   : 1 080 pixels
Display aspect ratio                     : 16:9
Frame rate mode                          : Constant
Frame rate                               : 23.976 fps
Color space                              : YUV
Chroma subsampling                       : 4:2:0
Bit depth                                : 8 bits
Scan type                                : Progressive
Bits/(Pixel*Frame)                       : 0.096
Stream size                              : 3.33 GiB (79%)
Title                                    : www.club-hd.com
Writing library                          : x264 core 112
Language                                 : English
Default                                  : Yes
Forced                                   : No
Color primaries                          : BT.709
Transfer characteristics                 : BT.709
Matrix coefficients                      : BT.709

Audio #1
ID                                       : 2
Format                                   : AC-3
Format/Info                              : Audio Coding 3
Mode extension                           : CM (complete main)
Format settings, Endianness              : Big
Codec ID                                 : A_AC3
Duration                                 : 1h 44mn
Bit rate mode                            : Constant
Bit rate                                 : 448 Kbps
Channel(s)                               : 6 channels
Channel positions                        : Front: L C R, Side: L R, LFE
Sampling rate                            : 48.0 KHz
Bit depth                                : 16 bits
Compression mode                         : Lossy
Stream size                              : 336 MiB (8%)
Title                                    : www.club-hd.com > Latino
Language                                 : Spanish
Default                                  : Yes
Forced                                   : No

Audio #2
ID                                       : 3
Format                                   : AC-3
Format/Info                              : Audio Coding 3
Mode extension                           : CM (complete main)
Format settings, Endianness              : Big
Codec ID                                 : A_AC3
Duration                                 : 1h 44mn
Bit rate mode                            : Constant
Bit rate                                 : 640 Kbps
Channel(s)                               : 6 channels
Channel positions                        : Front: L C R, Side: L R, LFE
Sampling rate                            : 48.0 KHz
Bit depth                                : 16 bits
Compression mode                         : Lossy
Stream size                              : 479 MiB (11%)
Title                                    : www.club-hd.com > Inglés
Language                                 : English
Default                                  : No
Forced                                   : No

Text
ID                                       : 4
Format                                   : UTF-8
Codec ID                                 : S_TEXT/UTF8
Codec ID/Info                            : UTF-8 Plain Text
Language                                 : Spanish
Default                                  : No
Forced                                   : No

Menu
00:00:00.000                             : en:Chapter 1
00:03:31.836                             : en:Chapter 2
00:06:00.526                             : en:Chapter 3
00:08:45.399                             : en:Chapter 4
00:15:17.374                             : en:Chapter 5
00:19:01.640                             : en:Chapter 6
00:23:06.385                             : en:Chapter 7
00:27:18.803                             : en:Chapter 8
00:30:10.099                             : en:Chapter 9
00:34:27.273                             : en:Chapter 10
00:35:53.359                             : en:Chapter 11
00:39:35.831                             : en:Chapter 12
00:45:25.597                             : en:Chapter 13
00:50:48.545                             : en:Chapter 14
00:56:06.821                             : en:Chapter 15
00:59:42.328                             : en:Chapter 16
01:03:09.243                             : en:Chapter 17
01:05:57.411                             : en:Chapter 18
01:08:16.258                             : en:Chapter 19
01:12:20.336                             : en:Chapter 20
01:18:32.916                             : en:Chapter 21
01:20:43.046                             : en:Chapter 22
01:30:05.858                             : en:Chapter 23
01:39:43.477                             : en:Chapter 24








Enlaces de Mega y Google Drive solo disponibles para Miembros VIP

Compra tu Membresía VIP y apoya a Club-HD!

ATENCIÓN! Tenemos TODO el material de Club-HD disponible por Mega y Google Drive, enlaces 100% activos y online hasta la fecha

Llévate tus cuentas Mega PRO III gratis con tu membresía VIP!
Todos los posts vivos con links de Mega y Google Drive.
Todo el material de Club-HD desbloqueado y sin publicidad.

Click Aquí para más información.


Para ver este contenido oculto, debes dar click en una de las siguientes reacciones : Like Like, Love Love, Haha Haha, Wow Wow, Sad Sad, Angry Angry

 
Última edición por un moderador:

Lcreme

Well-known member
Registro
27 Ago 2012
Mensajes
2.090
buenas las 2 las estaba buscando en esta calidad siempre exclusivos amigos bajando/..grax
 

HemoAr

Dohko de Libra
Administrador
Uploader
Miembro VIP
Registro
9 Mar 2013
Mensajes
10.597
Ubicación
Rozan
Sin duda alguna, esta es una super pelicula. Esta la vi en el cine cuando salio. Muy buena y super calidad y por 4.21gb, me la llevo. Sin duda alguna. Excelente aporte como todos y como siempre Revolver22. Un gran saludos a todos los que hacen de Club Hd el Mejor. :aplausos:
 

Usuarios Que Están Viendo Este Tema (Total: 1, Miembros: 0, Invitados: 1)

Quién Leyó Este Tema (Total Miembros: 1)

Arriba