No Retreat, No Surrender (1986) 720p BDRip Dual Latino-Inglés [Subt. Esp] (Acción. Artes marciales)

Max

Admin
Miembro del Staff
Administrador
Miembro VIP
Registro
8 Ago 2012
Mensajes
6.034
Ubicación
Disco C




Título original: No Retreat, No Surrender
Título en Latino: Retroceder nunca, rendirse jamás
Año: 1986
Duración: 94 min.
País: Estados Unidos
Director: Corey Yuen
Guión: Corey Yuen, Keith W. Strandberg, See-Yuen Ng
Música: Paul Gilreath
Fotografía: John Huneck, David Golia
Reparto: Kurt McKinney, Jean-Claude Van Damme, J.W. Fails, Kathie Sileno, Tai Chung Kim, Kent Lipham, Ron Pohnel
Productora: Coproducción USA-Hong Kong; Seasonal Film Corporation / New World Pictures / Balcor Film
Género: Acción | Artes marciales

http://www.imdb.com/title/tt0089695/?ref_=fn_al_tt_1






Jason Stillwell (Kurt McKinney) es un joven, fan de Bruce Lee, que estudia en la escuela de karate de su padre. Pero cuando un mafioso comienza a extorsionarles, el padre decide que se deben marchar a otra ciudad, y allí el hijo se apunta a otra escuela. Pero Jason también es humillado, y va a la tumba de Bruce Lee a pedirle ayuda...













































Código:
General
Complete name                            : No Retreat, No Surrender (1986) 720p BDRip Dual Latino-Inglés [Subt. Esp].mkv
Format                                   : Matroska
Format version                           : Version 2
File size                                : 2.97 GiB
Duration                                 : 1h 35mn
Overall bit rate                         : 4 464 Kbps
Movie name                               : www.club-hd.com --> No Retreat, No Surrender (1986) 720p BDRip Dual Latino-Inglés [Subt. Esp]
Encoded date                             : UTC 2013-07-17 03:24:44
Writing application                      : mkvmerge v5.8.0 ('No Sleep / Pillow') built on Sep  2 2012 15:37:04
Writing library                          : libebml v1.2.3 + libmatroska v1.3.0

Video
ID                                       : 1
Format                                   : AVC
Format/Info                              : Advanced Video Codec
Format profile                           : High@L4.1
Format settings, CABAC                   : Yes
Format settings, ReFrames                : 8 frames
Muxing mode                              : Header stripping
Codec ID                                 : V_MPEG4/ISO/AVC
Duration                                 : 1h 35mn
Bit rate                                 : 4 000 Kbps
Width                                    : 1 280 pixels
Height                                   : 688 pixels
Display aspect ratio                     : 1.85:1
Frame rate mode                          : Constant
Frame rate                               : 25.000 fps
Color space                              : YUV
Chroma subsampling                       : 4:2:0
Bit depth                                : 8 bits
Scan type                                : Progressive
Bits/(Pixel*Frame)                       : 0.182
Stream size                              : 2.57 GiB (87%)
Title                                    : www.club-hd.com --> No Retreat, No Surrender (1986) 720p BDRip Dual Latino-Inglés [Subt. Esp]
Writing library                          : x264 core 120
Encoding settings                        : cabac=1 / ref=9 / deblock=1:-2:-2 / analyse=0x3:0x133 / me=umh / subme=10 / psy=1 / psy_rd=1.00:0.00 / mixed_ref=1 / me_range=24 / chroma_me=1 / trellis=2 / 8x8dct=1 / cqm=0 / deadzone=21,11 / fast_pskip=1 / chroma_qp_offset=-2 / threads=24 / sliced_threads=0 / nr=0 / decimate=1 / interlaced=0 / bluray_compat=0 / constrained_intra=0 / bframes=3 / b_pyramid=1 / b_adapt=1 / b_bias=0 / direct=1 / weightb=1 / open_gop=0 / weightp=2 / keyint=250 / keyint_min=25 / scenecut=40 / intra_refresh=0 / rc_lookahead=50 / rc=abr / mbtree=1 / bitrate=4000 / ratetol=1.0 / qcomp=0.60 / qpmin=3 / qpmax=69 / qpstep=4 / ip_ratio=1.40 / aq=1:1.00
Language                                 : English
Default                                  : Yes
Forced                                   : No
Color primaries                          : BT.709
Transfer characteristics                 : BT.709
Matrix coefficients                      : BT.709

Audio #1
ID                                       : 2
Format                                   : AC-3
Format/Info                              : Audio Coding 3
Mode extension                           : CM (complete main)
Format settings, Endianness              : Big
Muxing mode                              : Header stripping
Codec ID                                 : A_AC3
Duration                                 : 1h 35mn
Bit rate mode                            : Constant
Bit rate                                 : 192 Kbps
Channel(s)                               : 2 channels
Channel positions                        : Front: L R
Sampling rate                            : 48.0 KHz
Bit depth                                : 16 bits
Compression mode                         : Lossy
Stream size                              : 131 MiB (4%)
Title                                    : No Retreat, No Surrender (1986) - Español Latino AC3 2.0
Language                                 : Spanish
Default                                  : Yes
Forced                                   : No

Audio #2
ID                                       : 3
Format                                   : AC-3
Format/Info                              : Audio Coding 3
Format profile                           : Dolby Digital
Mode extension                           : CM (complete main)
Format settings, Endianness              : Big
Muxing mode                              : Header stripping
Codec ID                                 : A_AC3
Duration                                 : 1h 35mn
Bit rate mode                            : Constant
Bit rate                                 : 320 Kbps
Channel(s)                               : 2 channels
Channel positions                        : Front: L R
Sampling rate                            : 48.0 KHz
Bit depth                                : 16 bits
Compression mode                         : Lossy
Stream size                              : 218 MiB (7%)
Title                                    : No Retreat, No Surrender (1986) - Inglés AC3 2.0
Language                                 : English
Default                                  : No
Forced                                   : No

Text
ID                                       : 4
Format                                   : UTF-8
Codec ID                                 : S_TEXT/UTF8
Codec ID/Info                            : UTF-8 Plain Text
Title                                    : No Retreat, No Surrender (1986) - Subtítulos Español
Language                                 : Spanish
Default                                  : No
Forced                                   : No








Enlaces de Mega y Google Drive solo disponibles para Miembros VIP

Compra tu Membresía VIP y apoya a Club-HD!

ATENCIÓN! Tenemos TODO el material de Club-HD disponible por Mega y Google Drive, enlaces 100% activos y online hasta la fecha

Llévate tus cuentas Mega PRO III gratis con tu membresía VIP!
Todos los posts vivos con links de Mega y Google Drive.
Todo el material de Club-HD desbloqueado y sin publicidad.

Click Aquí para más información.


Para ver este contenido oculto, debes dar click en una de las siguientes reacciones : Like Like, Love Love, Haha Haha, Wow Wow, Sad Sad, Angry Angry

 
Última edición:

LANINADULCE

Well-known member
Miembro VIP
Registro
28 Ago 2012
Mensajes
3.077
Edad
43
Desc_g_ GRACIAS :plmfc:
 
Última edición por un moderador:

NeoGoku

Member
Registro
7 Sep 2012
Mensajes
602
Edad
59
que pelicula, super gracias, el master de bruce lee, con sus ultimas ensenanzas, doblado por supuesto, pero muy buena pelicula e ilusion del maestro Lee
 

Usuarios Que Están Viendo Este Tema (Total: 1, Miembros: 0, Invitados: 1)

Quién Leyó Este Tema (Total Miembros: 3)

Arriba