Olympus Has Fallen (2013) m-720p BDRip Dual Latino-Inglés [Subt. Esp] (Thriller. Acción)

Maestro Revolver

Well-known member
Miembro del Staff
Administrador
Registro
9 Ago 2012
Mensajes
3.567








TÍTULO ORIGINAL: Olympus Has Fallen
AÑO: 2013
DURACIÓN: 119 min.
PAÍS: USA
DIRECTOR: Antoine Fuqua
GUIÓN: Creighton Rothenberger, Katrin Benedikt
REPARTO: Gerard Butler, Aaron Eckhart, Morgan Freeman, Dylan McDermott, Ashley Judd, Radha Mitchell, Melissa Leo, Cole Hauser, Angela Bassett, Han Soto, Robert Forster, Rick Yune, Arden Cho, Sean O'Bryan, Tory Kittles, Jason Yee, Amber Dawn Landrum
PRODUCTORA: Millennium Films / Nu Image / Millennium Films / Sony Pictures Entertainment (SPE)
GÉNERO: Thriller. Acción | Terrorismo
: http://www.imdb.com/title/tt2302755/






Tras un accidente en el que sólo consigue salvar la vida del Presidente Asher (Aaron Eckhart), el agente del Servicio Secreto Mike Banning (Gerard Butler) decide dejar su puesto para trabajar en el Departamento del Tesoro. Pero, cuando un comando norcoreano liderado por Kang (Rick Yune) ataca la Casa Blanca y toma como rehenes al Presidente y a su equipo, Banning se verá obligado a entrar de nuevo en acción.
























La pelicula NO tiene ninguna marca... solo colocamos el nombre de esta web en las capturas






Código:
General
Format                                   : Matroska
Format version                           : Version 2
File size                                : 2.81 GiB
Duration                                 : 1h 59mn
Overall bit rate                         : 3 373 Kbps
Movie name                               : www.club-hd.com
Encoded date                             : UTC 2013-08-09 23:14:09
Writing application                      : mkvmerge v5.7.0 ('The Whirlwind') built on Jul  8 2012 20:08:51
Writing library                          : libebml v1.2.3 + libmatroska v1.3.0

Video
ID                                       : 1
Format                                   : AVC
Format/Info                              : Advanced Video Codec
Format profile                           : High@L4.1
Format settings, CABAC                   : Yes
Format settings, ReFrames                : 9 frames
Codec ID                                 : V_MPEG4/ISO/AVC
Duration                                 : 1h 59mn
Bit rate                                 : 2 738 Kbps
Width                                    : 1 280 pixels
Height                                   : 538 pixels
Display aspect ratio                     : 2.40:1
Frame rate mode                          : Constant
Frame rate                               : 24.000 fps
Color space                              : YUV
Chroma subsampling                       : 4:2:0
Bit depth                                : 8 bits
Scan type                                : Progressive
Bits/(Pixel*Frame)                       : 0.166
Stream size                              : 2.22 GiB (79%)
Title                                    : www.club-hd.com
Writing library                          : x264 core 130 r2273 b3065e6
Language                                 : English
Default                                  : Yes
Forced                                   : No

Audio #1
ID                                       : 2
Format                                   : AC-3
Format/Info                              : Audio Coding 3
Mode extension                           : CM (complete main)
Format settings, Endianness              : Big
Codec ID                                 : A_AC3
Duration                                 : 1h 59mn
Bit rate mode                            : Constant
Bit rate                                 : 192 Kbps
Channel(s)                               : 2 channels
Channel positions                        : Front: L R
Sampling rate                            : 48.0 KHz
Bit depth                                : 16 bits
Compression mode                         : Lossy
Delay relative to video                  : 200ms
Stream size                              : 164 MiB (6%)
Title                                    : www club-hd.com > Latino
Language                                 : Spanish
Default                                  : Yes
Forced                                   : No

Audio #2
ID                                       : 3
Format                                   : AC-3
Format/Info                              : Audio Coding 3
Mode extension                           : CM (complete main)
Format settings, Endianness              : Big
Codec ID                                 : A_AC3
Duration                                 : 1h 59mn
Bit rate mode                            : Constant
Bit rate                                 : 448 Kbps
Channel(s)                               : 6 channels
Channel positions                        : Front: L C R, Side: L R, LFE
Sampling rate                            : 48.0 KHz
Bit depth                                : 16 bits
Compression mode                         : Lossy
Stream size                              : 382 MiB (13%)
Title                                    : www.club-hd.com > Inglés
Language                                 : English
Default                                  : No
Forced                                   : No

Text
ID                                       : 4
Format                                   : UTF-8
Codec ID                                 : S_TEXT/UTF8
Codec ID/Info                            : UTF-8 Plain Text
Title                                    : www.club-hd.com
Language                                 : Spanish
Default                                  : No
Forced                                   : No

Menu
00:00:00.000                             : en:Chapter 1
00:09:19.542                             : en:Chapter 2
00:17:49.750                             : en:Chapter 3
00:27:52.417                             : en:Chapter 4
00:38:11.708                             : en:Chapter 5
00:46:51.833                             : en:Chapter 6
00:57:37.000                             : en:Chapter 7
01:07:31.708                             : en:Chapter 8
01:19:48.875                             : en:Chapter 9
01:28:46.208                             : en:Chapter 10
01:38:14.125                             : en:Chapter 11
01:50:14.625                             : en:Chapter 12








Enlaces de Mega y Google Drive solo disponibles para Miembros VIP

Compra tu Membresía VIP y apoya a Club-HD!

ATENCIÓN! Tenemos TODO el material de Club-HD disponible por Mega y Google Drive, enlaces 100% activos y online hasta la fecha

Llévate tus cuentas Mega PRO III gratis con tu membresía VIP!
Todos los posts vivos con links de Mega y Google Drive.
Todo el material de Club-HD desbloqueado y sin publicidad.

Click Aquí para más información.


Para ver este contenido oculto, debes dar click en una de las siguientes reacciones : Like Like, Love Love, Haha Haha, Wow Wow, Sad Sad, Angry Angry

 
Última edición por un moderador:

zacygal

Well-known member
Registro
3 Sep 2012
Mensajes
1.515
Edad
50
y a los 10 minutos subiendo en 720, para todos los gustos
Grax Revolver, por el tiempo y esfuerzo que dedicas en cada uno de tus aportes grande Revolver !!! ...
 

Usuarios Que Están Viendo Este Tema (Total: 1, Miembros: 0, Invitados: 1)

Quién Leyó Este Tema (Total Miembros: 1)

Arriba