One Direction This Is Us (2013) EXTENDED 720p BDRip Audio Inglés [Subt. Esp] (Documental)

Maestro Revolver

Miembro del Staff
Administrador
Registro
9 Ago 2012
Mensajes
3.157








TÍTULO ORIGINAL: 1D3D: This Is Us (One Direction 3D) (1D3D)
AÑO: 2013
DURACIÓN: 92 min.
PAÍS: USA
DIRECTOR: Morgan Spurlock
GUIÓN: One Direction
REPARTO: Documentary, Harry Styles, Niall Horan, Zayn Malik, Louis Tomlinson, Liam Payne
PRODUCTORA: Syco Entertainment / TriStar Pictures / Warrior Poets
GÉNERO: Documental | Documental sobre música. Conciertos. 3-D
: http://www.imdb.com/title/tt2515086/






Documental sobre la banda musical británica de adolescentes One Direction. Dirigida por Morgan Spurlock (Super Size Me, Freakonomics), narra los orígenes de los 5 miembros del grupo -Niall Horan, Zayn Malik, Liam Payne, Harry Styles y Louis Tomlinson- y como Simon Cowell los juntó tras haber concursado todos en la versión británica del programa de televisión Factor X del 2010. La banda rápidamente se ganó una legión de seguidores, y la actuación final donde participaban tres concursantes se convirtió en la más popular de todos los tiempos. En marzo de 2012, el álbum debut de One Direction “Up All Night” hizo historia en Estados Unidos y fue la primera vez que un primer álbum de un grupo británico entrara en primera posición en las listas de los 200 más escuchados en Estados Unidos. En el documental conocemos sus familias, exploraremos sus sueños y ahondaremos en cómo se sienten tras su meteórica subida al estrellato. El concierto principal en la película es el que dieron en el London O2 Arena, en Abril de 2013.
























La pelicula NO tiene ninguna marca... solo colocamos el nombre de esta web en las capturas






Código:
General
Format                                   : Matroska
Format version                           : Version 2
File size                                : 3.72 GiB
Duration                                 : 1h 46mn
Overall bit rate                         : 4 999 Kbps
Movie name                               : www.club-hd.com
Encoded date                             : UTC 2013-12-13 00:09:07
Writing application                      : mkvmerge v5.7.0 ('The Whirlwind') built on Jul  8 2012 20:08:51
Writing library                          : libebml v1.2.3 + libmatroska v1.3.0

Video
ID                                       : 1
Format                                   : AVC
Format/Info                              : Advanced Video Codec
Format profile                           : High@L4.1
Format settings, CABAC                   : Yes
Format settings, ReFrames                : 5 frames
Codec ID                                 : V_MPEG4/ISO/AVC
Duration                                 : 1h 46mn
Bit rate                                 : 4 358 Kbps
Width                                    : 1 280 pixels
Height                                   : 688 pixels
Display aspect ratio                     : 1.85:1
Frame rate mode                          : Constant
Frame rate                               : 23.976 fps
Color space                              : YUV
Chroma subsampling                       : 4:2:0
Bit depth                                : 8 bits
Scan type                                : Progressive
Bits/(Pixel*Frame)                       : 0.206
Stream size                              : 3.17 GiB (85%)
Title                                    : www.club-hd.com
Writing library                          : x264 core 140 r2377 1ca7bb9
Language                                 : English
Default                                  : Yes
Forced                                   : No

Audio
ID                                       : 2
Format                                   : AC-3
Format/Info                              : Audio Coding 3
Mode extension                           : CM (complete main)
Format settings, Endianness              : Big
Codec ID                                 : A_AC3
Duration                                 : 1h 46mn
Bit rate mode                            : Constant
Bit rate                                 : 640 Kbps
Channel(s)                               : 6 channels
Channel positions                        : Front: L C R, Side: L R, LFE
Sampling rate                            : 48.0 KHz
Bit depth                                : 16 bits
Compression mode                         : Lossy
Stream size                              : 488 MiB (13%)
Title                                    : www.club-hd.com
Language                                 : English
Default                                  : Yes
Forced                                   : No

Text
ID                                       : 3
Format                                   : UTF-8
Codec ID                                 : S_TEXT/UTF8
Codec ID/Info                            : UTF-8 Plain Text
Language                                 : Spanish
Default                                  : Yes
Forced                                   : No

Menu
00:00:00.000                             : en:00:00:00.000
00:05:49.057                             : en:00:05:49.057
00:15:22.338                             : en:00:15:22.338
00:20:16.549                             : en:00:20:16.549
00:33:28.256                             : en:00:33:28.256
00:38:57.710                             : en:00:38:57.710
00:45:06.787                             : en:00:45:06.787
00:53:08.352                             : en:00:53:08.352
01:01:31.354                             : en:01:01:31.354
01:06:04.252                             : en:01:06:04.252
01:11:15.146                             : en:01:11:15.146
01:13:35.828                             : en:01:13:35.828
01:20:57.769                             : en:01:20:57.769
01:25:55.525                             : en:01:25:55.525
01:31:25.605                             : en:01:31:25.605
01:36:26.781                             : en:01:36:26.781








Enlaces de Mega y Google Drive solo disponibles para Miembros VIP

Compra tu Membresía VIP y apoya a Club-HD!

ATENCIÓN! Tenemos TODO el material de Club-HD disponible por Mega y Google Drive, enlaces 100% activos y online hasta la fecha

Llévate tus cuentas Mega PRO III gratis con tu membresía VIP!
Todos los posts vivos con links de Mega y Google Drive.
Todo el material de Club-HD desbloqueado y sin publicidad.

Click Aquí para más información.



Para ver este contenido oculto, debes dar click en una de las siguientes reacciones : Like Like, Love Love, Haha Haha, Wow Wow, Sad Sad, Angry Angry

 
Última edición por un moderador:

Usuarios Que Están Viendo Este Tema (Total: 1, Miembros: 0, Invitados: 1)

Quién Leyó Este Tema (Total Miembros: 2)

Arriba