Ong Bak 2 (2008) m-720p BDRip Audio Tailandes [Subt. Esp] (Acción | Artes marciales )

Maestro Revolver

Well-known member
Miembro del Staff
Administrador
Registro
9 Ago 2012
Mensajes
3.567








TÍTULO ORIGINAL: Ong Bak 2
AÑO: 2008
DURACIÓN: 110 min.
PAÍS: Tailandia
DIRECTOR: Tony Jaa, Panna Rittikrai
GUIÓN: Ek Iemchuen, Nonthakorn Thaweesuk (Argumento: Tony Jaa, Panna Rittikrai)
REPARTO: Tony Jaa, Sorapong Chatree, Sarunyu Wongkrachang, Nirut Sirichanya, Santisuk Promsiri, Primorata Dejudom, Natdanai Kongthong, Patthama Panthong, Petchtai Wongkamlao, Dan Chupong, Supakorn Kitsuwon
PRODUCTORA: Sahamongkol Film International / Iyara Films
GÉNERO: Acción | Artes marciales. Secuela
: http://www.imdb.com/title/tt0785035/






Tien es un niño que huye para salvar su vida. No entiende por qué, pero toda su familia ha sido asesinada y no tiene dónde esconderse. Capturado por comerciantes de esclavos, su coraje y su espíritu de luchador le salvarán de una muerte segura. Tien es rescatado por una cuadrilla de bandoleros que lo acogerán y lo instruirán en las artes marciales, convirtiéndose en un gran guerrero. Ya adulto, Tien (Tony Jaa) quiere encontrar respuesta a los misterios de su infancia y, sobre todo, quiere saciar su sed de venganza por la cruel muerte de sus padres... Continuación de la aclamada película de artes marciales "Ong Bak". En esta ocasión el protagonista, Tony Jaa, también se encargará de la dirección.
























La pelicula NO tiene ninguna marca... solo colocamos el nombre de esta web en las capturas






Código:
General
Format                                   : Matroska
Format version                           : Version 2
File size                                : 2.33 GiB
Duration                                 : 1h 37mn
Overall bit rate                         : 3 418 Kbps
Movie name                               : www.club-hd.com
Encoded date                             : UTC 2013-06-12 01:35:53
Writing application                      : mkvmerge v5.7.0 ('The Whirlwind') built on Jul  8 2012 20:08:51
Writing library                          : libebml v1.2.3 + libmatroska v1.3.0

Video
ID                                       : 1
Format                                   : AVC
Format/Info                              : Advanced Video Codec
Format profile                           : High@L4.1
Format settings, CABAC                   : Yes
Format settings, ReFrames                : 9 frames
Codec ID                                 : V_MPEG4/ISO/AVC
Duration                                 : 1h 37mn
Bit rate                                 : 2 778 Kbps
Width                                    : 1 280 pixels
Height                                   : 544 pixels
Display aspect ratio                     : 2.35:1
Frame rate mode                          : Constant
Frame rate                               : 23.976 fps
Color space                              : YUV
Chroma subsampling                       : 4:2:0
Bit depth                                : 8 bits
Scan type                                : Progressive
Bits/(Pixel*Frame)                       : 0.166
Stream size                              : 1.85 GiB (79%)
Title                                    : www.club-hd.com
Writing library                          : x264 core 129 r2245 bc13772
Language                                 : Thai
Default                                  : Yes
Forced                                   : No

Audio
ID                                       : 2
Format                                   : AC-3
Format/Info                              : Audio Coding 3
Mode extension                           : CM (complete main)
Format settings, Endianness              : Big
Codec ID                                 : A_AC3
Duration                                 : 1h 37mn
Bit rate mode                            : Constant
Bit rate                                 : 640 Kbps
Channel(s)                               : 6 channels
Channel positions                        : Front: L C R, Side: L R, LFE
Sampling rate                            : 48.0 KHz
Bit depth                                : 16 bits
Compression mode                         : Lossy
Stream size                              : 447 MiB (19%)
Title                                    : www.club-hd.com
Language                                 : Thai
Default                                  : Yes
Forced                                   : No

Text
ID                                       : 3
Format                                   : UTF-8
Codec ID                                 : S_TEXT/UTF8
Codec ID/Info                            : UTF-8 Plain Text
Title                                    : www.club-hd.com
Language                                 : Spanish
Default                                  : Yes
Forced                                   : No

Menu
00:00:00.000                             : en:Introduction
00:05:19.361                             : en:Slave Traders
00:14:00.256                             : en:Training
00:24:05.486                             : en:The Tests
00:35:23.330                             : en:Night Raid
00:45:03.910                             : en:Revisiting the Traders
00:53:33.878                             : en:Troubled Past
01:03:19.838                             : en:The Garuda Deva Dynasty
01:13:27.278                             : en:Unexpected Reception
01:20:22.777                             : en:Surrounded
01:27:24.031                             : en:Vengeance
01:33:11.253                             : en:Credits








Enlaces de Mega y Google Drive solo disponibles para Miembros VIP

Compra tu Membresía VIP y apoya a Club-HD!

ATENCIÓN! Tenemos TODO el material de Club-HD disponible por Mega y Google Drive, enlaces 100% activos y online hasta la fecha

Llévate tus cuentas Mega PRO III gratis con tu membresía VIP!
Todos los posts vivos con links de Mega y Google Drive.
Todo el material de Club-HD desbloqueado y sin publicidad.

Click Aquí para más información.



Enlaces de Mega y Google Drive solo disponibles para Miembros VIP

Compra tu Membresía VIP y apoya a Club-HD!

ATENCIÓN! Tenemos TODO el material de Club-HD disponible por Mega y Google Drive, enlaces 100% activos y online hasta la fecha

Llévate tus cuentas Mega PRO III gratis con tu membresía VIP!
Todos los posts vivos con links de Mega y Google Drive.
Todo el material de Club-HD desbloqueado y sin publicidad.

Click Aquí para más información.



Para ver este contenido oculto, debes dar click en una de las siguientes reacciones : Like Like, Love Love, Haha Haha, Wow Wow, Sad Sad, Angry Angry
 
Última edición por un moderador:

Usuarios Que Están Viendo Este Tema (Total: 1, Miembros: 0, Invitados: 1)

Quién Leyó Este Tema (Total Miembros: 3)

Arriba