Out of the Furnace (2013) 1080p AMZN WEB-DL Latino-Inglés [Sub.Esp] (Thriller.Drama)

LuchoO

責任者
Miembro del Staff
Moderador
Uploader
Miembro VIP
Registro
15 Ago 2015
Mensajes
1.017
Soluciones
1











Russell Baze (Christian Bale) y su hermano menor Rodney (Casey Affleck) viven en el Rust Belt, una zona desindustrializada que registra el índice de paro más alto de Estados Unidos. Russell trabaja en una acería a punto de cerrar, mientras que Rodney acaba de regresar de la guerra de Iraq. Ambos sueñan con marcharse para encontrar una vida mejor. Sin embargo, un cruel giro del destino hace que Russell ingrese en prisión y que su hermano se una a una violenta banda criminal.

6.7


















General
Complete name : Out.of.the.Furnace.2013.AMZN.WEB-DL.1080p.DDP2.0.x264.Lat.Ing-MDX.mkv
Format : Matroska
Format version : Version 4
File size : 8.22 GiB
Duration : 1 h 56 min
Overall bit rate : 10.1 Mb/s
Movie name : [LuchoO] La ley del mas fuerte (2014) [1080p].mkv
Encoded date : UTC 2022-09-17 14:23:12
Writing application : mkvmerge v50.0.0 ('Awakenings') 64-bit
Writing library : libebml v1.4.0 + libmatroska v1.6.2

Video
ID : 1
Format : AVC
Format/Info : Advanced Video Codec
Format profile : High@L4
Format settings : CABAC / 4 Ref Frames
Format settings, CABAC : Yes
Format settings, RefFrames : 4 frames
Codec ID : V_MPEG4/ISO/AVC
Duration : 1 h 56 min
Bit rate mode : Constant
Bit rate : 9 255 kb/s
Nominal bit rate : 10 000 kb/s
Width : 1 920 pixels
Height : 872 pixels
Display aspect ratio : 2.2:1
Frame rate mode : Constant
Frame rate : 24.000 FPS
Color space : YUV
Chroma subsampling : 4:2:0
Bit depth : 8 bits
Scan type : Progressive
Bits/(Pixel*Frame) : 0.230
Stream size : 7.52 GiB (91%)
Default : Yes
Forced : No
Color range : Limited
Color primaries : BT.709
Transfer characteristics : BT.709
Matrix coefficients : BT.709

Audio #1
ID : 2
Format : E-AC-3
Format/Info : Enhanced AC-3
Commercial name : Dolby Digital Plus
Codec ID : A_EAC3
Duration : 1 h 56 min
Bit rate mode : Constant
Bit rate : 224 kb/s
Channel(s) : 2 channels
Channel layout : L R
Sampling rate : 48.0 kHz
Frame rate : 31.250 FPS (1536 SPF)
Compression mode : Lossy
Stream size : 186 MiB (2%)
Title : Spanish
Language : Spanish
Service kind : Complete Main
Default : Yes
Forced : No

Audio #2
ID : 3
Format : E-AC-3
Format/Info : Enhanced AC-3
Commercial name : Dolby Digital Plus
Codec ID : A_EAC3
Duration : 1 h 56 min
Bit rate mode : Constant
Bit rate : 640 kb/s
Channel(s) : 6 channels
Channel layout : L R C LFE Ls Rs
Sampling rate : 48.0 kHz
Frame rate : 31.250 FPS (1536 SPF)
Compression mode : Lossy
Stream size : 532 MiB (6%)
Title : English
Language : English
Service kind : Complete Main
Default : No
Forced : No

Text
ID : 4
Format : UTF-8
Codec ID : S_TEXT/UTF8
Codec ID/Info : UTF-8 Plain Text
Duration : 1 h 48 min
Bit rate : 38 b/s
Count of elements : 923
Stream size : 30.8 KiB (0%)
Title : SDH
Language : Spanish
Default : No
Forced : No

Menu
00:00:00.000 : 1. Studio Logo
00:00:32.000 : 2. Harlan gets in a fight
00:04:16.000 : 3. Title Sequence
00:04:32.000 : 4. Russell heads home from the foundry
00:06:08.000 : 5. Russell sees Rodney
00:08:41.000 : 6. Russell and Lena wake to the buzzer
00:10:00.000 : 7. Russell goes to see Rodney
00:11:49.000 : 8. Russell covers for Rodney
00:15:18.000 : 9. Russell has an accident
00:17:32.000 : 10. Rodney visits Russell
00:19:23.000 : 11. Russell runs into trouble
00:20:48.000 : 12. Russell hears about his father
00:22:44.000 : 13. Russell sees daylight
00:24:51.000 : 14. Russell goes to see his father's grave
00:25:31.000 : 15. Russell talks about Lena
00:26:43.000 : 16. Russell checks on Lena
00:27:46.000 : 17. Russell works at home while Rodney gets a fight
00:31:24.000 : 18. Russell confronts Rodney
00:36:51.000 : 19. Rodney asks for a fight
00:38:50.000 : 20. Russell sees Lena
00:44:09.000 : 21. Russell revisits the accident scene
00:46:35.000 : 22. Rodney gets pushed by Harlan
00:51:51.000 : 23. Russell hunts deer while Rodney has another fight
00:58:51.000 : 24. Rodney and Petty run into trouble with Harlan
01:02:39.000 : 25. Russell reads a note from Rodney
01:05:06.000 : 26. Russell, Red and Dan hear about Rodney
01:09:43.000 : 27. Russell searches for Harlan's address
01:12:00.000 : 28. Russell and Red go hunting for Harlan
01:19:02.000 : 29. Russell and Red are asked to leave
01:21:18.000 : 30. Wesley brings Russell the news about Rodney
01:23:42.000 : 31. Russell has Wesley and Lena over for supper
01:26:51.000 : 32. SWAT looks for Harlan
01:30:04.000 : 33. Russell hears about the raid at Harlan's
01:31:14.000 : 34. Russell searches for the ledger
01:32:11.000 : 35. Russell calls Harlan to get him to come to Braddock
01:33:23.000 : 36. Russell waits for Harlan
01:39:08.000 : 37. Harlan runs from Russell
01:47:23.000 : 38. Russell at the table
01:48:05.000 : 39. End Credits



★Todos los links son Intercambiables★



Enlaces de Mega y Google Drive solo disponibles para Miembros VIP

Compra tu Membresía VIP y apoya a Club-HD!

ATENCIÓN! Tenemos TODO el material de Club-HD disponible por Mega y Google Drive, enlaces 100% activos y online hasta la fecha

Llévate tus cuentas Mega PRO III gratis con tu membresía VIP!
Todos los posts vivos con links de Mega y Google Drive.
Todo el material de Club-HD desbloqueado y sin publicidad.

Click Aquí para más información.


Enlaces de Mega y Google Drive solo disponibles para Miembros VIP

Compra tu Membresía VIP y apoya a Club-HD!

ATENCIÓN! Tenemos TODO el material de Club-HD disponible por Mega y Google Drive, enlaces 100% activos y online hasta la fecha

Llévate tus cuentas Mega PRO III gratis con tu membresía VIP!
Todos los posts vivos con links de Mega y Google Drive.
Todo el material de Club-HD desbloqueado y sin publicidad.

Click Aquí para más información.


Para ver este contenido oculto, debes dar click en una de las siguientes reacciones : Like Like, Love Love, Haha Haha, Wow Wow, Sad Sad, Angry Angry


Para ver este contenido oculto, debes dar click en una de las siguientes reacciones : Like Like, Love Love, Haha Haha, Wow Wow, Sad Sad, Angry Angry
★ CONTRASEÑA ★
www.club-hd.com


"Solo Audio Latino"
 
Última edición por un moderador:

Usuarios Que Están Viendo Este Tema (Total: 1, Miembros: 0, Invitados: 1)

Arriba