• Este aviso va dirigido a todos los nuevos miembros recien llegados a Club-HD. Les recordamos que la direccion URL de este sitio web es , asi que deben acceder únicamente por esta URL. Sean todos bienvenidos al Club!

Out of the Furnace (2013) 1080p BDRip Dual Latino-Inglés [Subt. Esp] (Thriller. Drama)

Gotas

Well-known member
Uploader
Registrado
30 May 2018
Mensajes
333
Puntos de reacción
1,121
Puntos
93





Título original: Out of the Furnace
Año: 2013
Duración: 116 min.
País: Estados Unidos
Dirección: Scott Cooper
Guion: Brad Ingelsby
Música: Bob Bowen
Fotografía: Masanobu Takayanagi
Reparto: Christian Bale, Casey Affleck, Woody Harrelson, Willem Dafoe, Forest Whitaker, Sam Shepard, Zoe Saldana, Boyd Holbrook, Dendrie Taylor, Tom Bower
Productora: Relativity Studios, Appian Way, Energy Entertainment, Red Granite Pictures
Género: Thriller. Drama | Crimen. Vida rural (Norteamérica)

Sinopsis: Russell Baze (Christian Bale) y su hermano menor Rodney (Casey Affleck) viven en el Rust Belt, una zona desindustrializada que registra el índice de paro más alto de Estados Unidos. Russell trabaja en una acería a punto de cerrar, mientras que Rodney acaba de regresar de la guerra de Iraq. Ambos sueñan con marcharse para encontrar una vida mejor. Sin embargo, un cruel giro del destino hace que Russell ingrese en prisión y que su hermano se una a una violenta banda criminal. (FILMAFFINITY)

Premios: 2013: Satellite Awards: Nominada a Mejor actor de reparto (Casey Affleck)




CAPTURAS























MEDIAINFO

Código:
General
Complete name               : Out.of.the.Furnace.2013.1080p.BluRay.DD5.1.x264-Gotas.mkv
Format                      : Matroska
Format version              : Version 4
File size                   : 18.7 GiB
Duration                    : 1 h 56 min
Overall bit rate            : 23.1 Mb/s
Movie name                  : Montaje de Gotas
Encoded date                : UTC 2020-04-01 01:36:54
Writing application         : mkvmerge v43.0.0 ('The Quartermaster') 64-bit
Writing library             : libebml v1.3.10 + libmatroska v1.5.2

Video
ID                          : 1
Format                      : AVC
Format/Info                 : Advanced Video Codec
Format profile              : High@L4.1
Format settings             : CABAC / 5 Ref Frames
Format settings, CABAC      : Yes
Format settings, Reference  : 5 frames
Codec ID                    : V_MPEG4/ISO/AVC
Duration                    : 1 h 56 min
Bit rate                    : 21.8 Mb/s
Width                       : 1 920 pixels
Height                      : 800 pixels
Display aspect ratio        : 2.40:1
Frame rate mode             : Constant
Frame rate                  : 23.976 (24000/1001) FPS
Color space                 : YUV
Chroma subsampling          : 4:2:0
Bit depth                   : 8 bits
Scan type                   : Progressive
Bits/(Pixel*Frame)          : 0.592
Stream size                 : 17.7 GiB (94%)
Title                       : Out.of.the.Furnace.2013.1080p.BluRay.DD5.1.x264-Gotas
Writing library             : x264 core 140 r2377 1ca7bb9
Encoding settings           : cabac=1 / ref=5 / deblock=1:-3:-3 / analyse=0x3:0x113 / me=tesa / subme=10 / psy=1 / psy_rd=1.10:0.00 / mixed_ref=1 / me_range=16 / chroma_me=1 / trellis=2 / 8x8dct=1 / cqm=0 / deadzone=21,11 / fast_pskip=0 / chroma_qp_offset=-2 / threads=12 / lookahead_threads=2 / sliced_threads=0 / nr=0 / decimate=0 / interlaced=0 / bluray_compat=0 / constrained_intra=0 / bframes=9 / b_pyramid=2 / b_adapt=2 / b_bias=0 / direct=3 / weightb=1 / open_gop=0 / weightp=2 / keyint=250 / keyint_min=23 / scenecut=40 / intra_refresh=0 / rc=crf / mbtree=0 / crf=16.5 / qcomp=0.70 / qpmin=0 / qpmax=69 / qpstep=4 / ip_ratio=1.30 / pb_ratio=1.20 / aq=1:0.70 / zones=156197,167064,crf=30
Language                    : English
Default                     : Yes
Forced                      : No

Audio #1
ID                          : 2
Format                      : AC-3
Format/Info                 : Audio Coding 3
Commercial name             : Dolby Digital
Codec ID                    : A_AC3
Duration                    : 1 h 56 min
Bit rate mode               : Constant
Bit rate                    : 640 kb/s
Channel(s)                  : 6 channels
Channel layout              : L R C LFE Ls Rs
Sampling rate               : 48.0 kHz
Frame rate                  : 31.250 FPS (1536 SPF)
Compression mode            : Lossy
Stream size                 : 532 MiB (3%)
Title                       : Inglés / AC3 / 5.1
Language                    : English
Service kind                : Complete Main
Default                     : Yes
Forced                      : No

Audio #2
ID                          : 3
Format                      : AC-3
Format/Info                 : Audio Coding 3
Commercial name             : Dolby Digital
Codec ID                    : A_AC3
Duration                    : 1 h 56 min
Bit rate mode               : Constant
Bit rate                    : 640 kb/s
Channel(s)                  : 2 channels
Channel layout              : L R
Sampling rate               : 48.0 kHz
Frame rate                  : 31.250 FPS (1536 SPF)
Compression mode            : Lossy
Delay relative to video     : 4 ms
Stream size                 : 532 MiB (3%)
Title                       : Español (América) / AC3 / 2.0 / Prime Video
Language                    : Spanish
Service kind                : Complete Main
Default                     : No
Forced                      : No

Text #1
ID                          : 4
Format                      : UTF-8
Codec ID                    : S_TEXT/UTF8
Codec ID/Info               : UTF-8 Plain Text
Duration                    : 1 h 54 min
Bit rate                    : 34 b/s
Count of elements           : 1039
Stream size                 : 28.5 KiB (0%)
Title                       : Español (América) / Completos / SRT / Blu-ray
Language                    : Spanish
Default                     : Yes
Forced                      : No

Text #2
ID                          : 5
Format                      : PGS
Muxing mode                 : zlib
Codec ID                    : S_HDMV/PGS
Codec ID/Info               : Picture based subtitle format used on BDs/HD-DVDs
Duration                    : 1 h 54 min
Bit rate                    : 22.1 kb/s
Count of elements           : 2098
Stream size                 : 18.1 MiB (0%)
Title                       : Español (América) / Completos / SUP / Blu-ray
Language                    : Spanish
Default                     : No
Forced                      : No

Text #3
ID                          : 6
Format                      : UTF-8
Codec ID                    : S_TEXT/UTF8
Codec ID/Info               : UTF-8 Plain Text
Duration                    : 1 h 51 min
Bit rate                    : 43 b/s
Count of elements           : 1295
Stream size                 : 35.2 KiB (0%)
Language                    : English
Default                     : No
Forced                      : No

Text #4
ID                          : 7
Format                      : PGS
Muxing mode                 : zlib
Codec ID                    : S_HDMV/PGS
Codec ID/Info               : Picture based subtitle format used on BDs/HD-DVDs
Duration                    : 1 h 51 min
Bit rate                    : 28.9 kb/s
Count of elements           : 2620
Stream size                 : 23.1 MiB (0%)
Language                    : English
Default                     : No
Forced                      : No

Menu
00:00:00.000                : en:00:00:00.000
00:04:54.669                : en:00:04:54.669
00:09:02.709                : en:00:09:02.709
00:12:11.105                : en:00:12:11.105
00:15:39.856                : en:00:15:39.856
00:17:55.074                : en:00:17:55.074
00:21:13.397                : en:00:21:13.397
00:23:40.961                : en:00:23:40.961
00:28:09.646                : en:00:28:09.646
00:33:17.162                : en:00:33:17.162
00:39:15.353                : en:00:39:15.353
00:45:26.223                : en:00:45:26.223
00:53:10.020                : en:00:53:10.020
01:01:09.666                : en:01:01:09.666
01:05:31.886                : en:01:05:31.886
01:10:08.579                : en:01:10:08.579
01:12:25.383                : en:01:12:25.383
01:21:45.192                : en:01:21:45.192
01:27:18.024                : en:01:27:18.024
01:30:31.593                : en:01:30:31.593
01:34:18.736                : en:01:34:18.736
01:37:58.039                : en:01:37:58.039
01:42:51.916                : en:01:42:51.916
01:47:49.296                : en:01:47:49.296

Doblaje en español latinoamericano de Prime Video, convertido de E-AC3 2.0 224 kbps 24.000 FPS a AC3 2.0 640 kbps 23.976 FPS

Subs en español latinoamericano del Blu-ray


Montaje realizado por Gotas


Contraseña:
www.club-hd.com




Enlaces de Mega y Google Drive solo disponibles para Miembros VIP

Compra tu Membresía VIP y apoya a Club-HD!

ATENCIÓN! Tenemos TODO el material de Club-HD disponible por Mega y Google Drive, enlaces 100% activos y online hasta la fecha

Llévate tus cuentas Mega PRO II gratis con tu membresía VIP!
Todos los posts vivos con links de Mega y Google Drive.
Todo el material de Club-HD desbloqueado y sin publicidad.

Click Aquí para más información.


Enlaces de Mega y Google Drive solo disponibles para Miembros VIP

Compra tu Membresía VIP y apoya a Club-HD!

ATENCIÓN! Tenemos TODO el material de Club-HD disponible por Mega y Google Drive, enlaces 100% activos y online hasta la fecha

Llévate tus cuentas Mega PRO II gratis con tu membresía VIP!
Todos los posts vivos con links de Mega y Google Drive.
Todo el material de Club-HD desbloqueado y sin publicidad.

Click Aquí para más información.


Para ver este contenido oculto, debes dar click en una de las siguientes reacciones: Like Like


Para ver este contenido oculto, debes dar click en una de las siguientes reacciones: Like Like
 
Última edición:

cripp

Well-known member
Registrado
27 Ago 2012
Mensajes
8,059
Puntos de reacción
463
Puntos
113
Gracias por compartir
 

ERRE

Well-known member
Registrado
28 Ago 2012
Mensajes
2,213
Puntos de reacción
167
Puntos
63
Gracias... 😄
 

clasaase

Clasaase
Miembro del Staff
Colaborador
Moderador
Miembro VIP
Registrado
3 Sep 2012
Mensajes
2,304
Puntos de reacción
702
Puntos
113
Ubicación
Chile
Tremendo reparto. Ésta hay que verla sí o sí. No sé como se me pasó. Ojalá algún día salga el latino 5.1
 

Usuarios Que Están Viendo Este Tema (Total: 1, Miembros: 0, Invitados: 1)

Arriba