Pain & Gain (2013) 720p BDRip Dual Latino-Inglés [Subt. Esp] (Acción. Comedia)

Maestro Revolver

Well-known member
Miembro del Staff
Administrador
Registro
9 Ago 2012
Mensajes
3.567








TÍTULO ORIGINAL: Pain & Gain (Pain and Gain)
AÑO: 2013
DURACIÓN: 130 min.
PAÍS: USA
DIRECTOR: Michael Bay
GUIÓN: Christopher Markus, Stephen McFeely (Artículos: Pete Collins)
REPARTO: Mark Wahlberg, Dwayne "The Rock" Johnson, Anthony Mackie, Ed Harris, Tony Shalhoub, Rebel Wilson, Ken Jeong, Rob Corddry, William Haze, Bar Paly
PRODUCTORA: Paramount Pictures / Platinum Dunes / De Line Pictures
GÉNERO: Acción. Comedia. Drama | Comedia negra
: http://www.imdb.com/title/tt1980209/






Del aclamado director Michael Bay nos llega “Dolor y Dinero”, una nueva comedia de acción con Mark Wahlberg, Dwayne Johnson y Anthony Mackie. Basada en el increíble hecho real de un grupo de entrenadores personales en el Miami de los noventa, que persiguiendo el sueño americano, acaban atrapados en una trama criminal con un final inesperado.
























La pelicula NO tiene ninguna marca... solo colocamos el nombre de esta web en las capturas






Código:
General
Format                                   : Matroska
Format version                           : Version 2
File size                                : 4.95 GiB
Duration                                 : 2h 9mn
Overall bit rate                         : 5 467 Kbps
Movie name                               : www.club-hd.com
Encoded date                             : UTC 2013-08-14 16:09:23
Writing application                      : mkvmerge v5.7.0 ('The Whirlwind') built on Jul  8 2012 20:08:51
Writing library                          : libebml v1.2.3 + libmatroska v1.3.0

Video
ID                                       : 1
Format                                   : AVC
Format/Info                              : Advanced Video Codec
Format profile                           : High@L4.1
Format settings, CABAC                   : Yes
Format settings, ReFrames                : 5 frames
Codec ID                                 : V_MPEG4/ISO/AVC
Duration                                 : 2h 9mn
Bit rate                                 : 4 186 Kbps
Width                                    : 1 280 pixels
Height                                   : 536 pixels
Display aspect ratio                     : 2.40:1
Frame rate mode                          : Constant
Frame rate                               : 23.976 fps
Color space                              : YUV
Chroma subsampling                       : 4:2:0
Bit depth                                : 8 bits
Scan type                                : Progressive
Bits/(Pixel*Frame)                       : 0.254
Stream size                              : 3.69 GiB (75%)
Title                                    : www.club-hd.com
Writing library                          : x264 core 135 r2345kMod f0c1c53
Language                                 : English
Default                                  : Yes
Forced                                   : No

Audio #1
ID                                       : 2
Format                                   : AC-3
Format/Info                              : Audio Coding 3
Mode extension                           : CM (complete main)
Format settings, Endianness              : Big
Codec ID                                 : A_AC3
Duration                                 : 2h 9mn
Bit rate mode                            : Constant
Bit rate                                 : 640 Kbps
Channel(s)                               : 6 channels
Channel positions                        : Front: L C R, Side: L R, LFE
Sampling rate                            : 48.0 KHz
Bit depth                                : 16 bits
Compression mode                         : Lossy
Stream size                              : 593 MiB (12%)
Title                                    : www.club-hd.com > Latino
Language                                 : Spanish
Default                                  : Yes
Forced                                   : No

Audio #2
ID                                       : 3
Format                                   : AC-3
Format/Info                              : Audio Coding 3
Mode extension                           : CM (complete main)
Format settings, Endianness              : Big
Codec ID                                 : A_AC3
Duration                                 : 2h 9mn
Bit rate mode                            : Constant
Bit rate                                 : 640 Kbps
Channel(s)                               : 6 channels
Channel positions                        : Front: L C R, Side: L R, LFE
Sampling rate                            : 48.0 KHz
Bit depth                                : 16 bits
Compression mode                         : Lossy
Stream size                              : 593 MiB (12%)
Title                                    : www.club-hd.com > Inglés
Language                                 : English
Default                                  : No
Forced                                   : No

Text
ID                                       : 4
Format                                   : UTF-8
Codec ID                                 : S_TEXT/UTF8
Codec ID/Info                            : UTF-8 Plain Text
Title                                    : www.club-hd.com
Language                                 : Spanish
Default                                  : No
Forced                                   : No

Menu
00:00:00.000                             : en:00:00:00.000
00:02:34.654                             : en:00:02:34.654
00:09:33.990                             : en:00:09:33.990
00:16:08.676                             : en:00:16:08.676
00:22:05.658                             : en:00:22:05.658
00:25:50.841                             : en:00:25:50.841
00:32:45.505                             : en:00:32:45.505
00:38:52.789                             : en:00:38:52.789
00:46:19.652                             : en:00:46:19.652
00:51:40.973                             : en:00:51:40.973
00:58:11.738                             : en:00:58:11.738
01:04:03.548                             : en:01:04:03.548
01:10:32.311                             : en:01:10:32.311
01:16:17.281                             : en:01:16:17.281
01:21:20.542                             : en:01:21:20.542
01:29:00.085                             : en:01:29:00.085
01:37:06.029                             : en:01:37:06.029
01:42:17.715                             : en:01:42:17.715
01:49:10.461                             : en:01:49:10.461
01:56:34.487                             : en:01:56:34.487
02:01:42.295                             : en:02:01:42.295








Enlaces de Mega y Google Drive solo disponibles para Miembros VIP

Compra tu Membresía VIP y apoya a Club-HD!

ATENCIÓN! Tenemos TODO el material de Club-HD disponible por Mega y Google Drive, enlaces 100% activos y online hasta la fecha

Llévate tus cuentas Mega PRO III gratis con tu membresía VIP!
Todos los posts vivos con links de Mega y Google Drive.
Todo el material de Club-HD desbloqueado y sin publicidad.

Click Aquí para más información.


Para ver este contenido oculto, debes dar click en una de las siguientes reacciones : Like Like, Love Love, Haha Haha, Wow Wow, Sad Sad, Angry Angry



 
Última edición por un moderador:

Usuarios Que Están Viendo Este Tema (Total: 1, Miembros: 0, Invitados: 1)

Quién Leyó Este Tema (Total Miembros: 1)

Arriba