Pandorum (2009) 720p BDRip Dual Latino-Inglés [Subt. Esp] (Ciencia ficción. Terror. Acción)

Maestro Revolver

Well-known member
Miembro del Staff
Administrador
Registro
9 Ago 2012
Mensajes
3.567








TÍTULO ORIGINAL: Pandorum
AÑO: 2009
DURACIÓN: 108 min.
PAÍS: Alemania
DIRECTOR: Christian Alvart
GUIÓN: Christian Alvart, Travis Milloy
REPARTO: Ben Foster, Antje Traue, Dennis Quaid, Cung Le, Cam Gigandet, Norman Reedus, Niels-Bruno Schmidt, Yangzom Brauen, Alessija Lause
PRODUCTORA: Coproducción Alemania-Estados Unidos-Reino Unido; Constantin Film Produktion / Overture Films / Alliance Films
GÉNERO: Ciencia ficción. Terror. Acción | Aventura espacial
: http://www.imdb.com/title/tt1188729/






Dos miembros de la tripulación de una nave espacial, el Teniente Payton (Dennis Quaid) y el Cabo Bower (Ben Foster), se despiertan en sus cámaras de hibernación sin recordar nada de lo que ha sucedido: ni quiénes son, ni cuál era su misión o por qué, aparentemente, son los únicos supervivientes. Conforme se adentren en las zonas más profundas de la nave, descubrirán que no están solos, y desvelarán el terrible misterio que rodea la desaparición del resto de la tripulación y de los pasajeros. Pronto se darán cuenta de que mantenerse con vida es mucho más importante de lo que puedan imaginarse: es el único modo de evitar la extinción de la raza humana.
























La pelicula NO tiene ninguna marca... solo colocamos el nombre de esta web en las capturas






Código:
General
Format                                   : Matroska
Format version                           : Version 2
File size                                : 3.82 GiB
Duration                                 : 1h 48mn
Overall bit rate                         : 5 058 Kbps
Movie name                               : www.club-hd.com
Encoded date                             : UTC 2013-06-21 04:23:43
Writing application                      : mkvmerge v5.7.0 ('The Whirlwind') built on Jul  8 2012 20:08:51
Writing library                          : libebml v1.2.3 + libmatroska v1.3.0

Video
ID                                       : 1
Format                                   : AVC
Format/Info                              : Advanced Video Codec
Format profile                           : High@L4.1
Format settings, CABAC                   : Yes
Format settings, ReFrames                : 8 frames
Codec ID                                 : V_MPEG4/ISO/AVC
Duration                                 : 1h 48mn
Bit rate                                 : 4 200 Kbps
Width                                    : 1 280 pixels
Height                                   : 544 pixels
Display aspect ratio                     : 2.35:1
Frame rate mode                          : Constant
Frame rate                               : 23.976 fps
Color space                              : YUV
Chroma subsampling                       : 4:2:0
Bit depth                                : 8 bits
Scan type                                : Progressive
Bits/(Pixel*Frame)                       : 0.252
Stream size                              : 3.07 GiB (80%)
Title                                    : www.club-hd.com
Writing library                          : x264 core 120
Language                                 : English
Default                                  : Yes
Forced                                   : No
Color primaries                          : BT.709
Transfer characteristics                 : BT.709
Matrix coefficients                      : BT.709

Audio #1
ID                                       : 2
Format                                   : AC-3
Format/Info                              : Audio Coding 3
Mode extension                           : CM (complete main)
Format settings, Endianness              : Big
Codec ID                                 : A_AC3
Duration                                 : 1h 48mn
Bit rate mode                            : Constant
Bit rate                                 : 448 Kbps
Channel(s)                               : 6 channels
Channel positions                        : Front: L C R, Side: L R, LFE
Sampling rate                            : 48.0 KHz
Bit depth                                : 16 bits
Compression mode                         : Lossy
Stream size                              : 346 MiB (9%)
Title                                    : www.club-hd.com  >>  Latino
Language                                 : Spanish
Default                                  : Yes
Forced                                   : No

Audio #2
ID                                       : 3
Format                                   : AC-3
Format/Info                              : Audio Coding 3
Mode extension                           : CM (complete main)
Format settings, Endianness              : Big
Codec ID                                 : A_AC3
Duration                                 : 1h 48mn
Bit rate mode                            : Constant
Bit rate                                 : 448 Kbps
Channel(s)                               : 6 channels
Channel positions                        : Front: L C R, Side: L R, LFE
Sampling rate                            : 48.0 KHz
Bit depth                                : 16 bits
Compression mode                         : Lossy
Stream size                              : 346 MiB (9%)
Title                                    : www.club-hd.com  >>  Inglés
Language                                 : English
Default                                  : No
Forced                                   : No

Text
ID                                       : 4
Format                                   : UTF-8
Codec ID                                 : S_TEXT/UTF8
Codec ID/Info                            : UTF-8 Plain Text
Language                                 : Spanish
Default                                  : No
Forced                                   : No

Menu
00:00:00.000                             : en:Chapter 1
00:02:56.634                             : en:Chapter 2
00:07:46.382                             : en:Chapter 3
00:12:18.446                             : en:Chapter 4
00:18:03.165                             : en:Chapter 5
00:28:38.842                             : en:Chapter 6
00:36:41.866                             : en:Chapter 7
00:44:31.126                             : en:Chapter 8
00:50:09.423                             : en:Chapter 9
00:57:23.398                             : en:Chapter 10
00:59:32.193                             : en:Chapter 11
01:03:38.940                             : en:Chapter 12
01:12:13.162                             : en:Chapter 13
01:25:28.164                             : en:Chapter 14
01:36:48.677                             : en:Chapter 15
01:41:26.205                             : en:Chapter 16








Enlaces de Mega y Google Drive solo disponibles para Miembros VIP

Compra tu Membresía VIP y apoya a Club-HD!

ATENCIÓN! Tenemos TODO el material de Club-HD disponible por Mega y Google Drive, enlaces 100% activos y online hasta la fecha

Llévate tus cuentas Mega PRO III gratis con tu membresía VIP!
Todos los posts vivos con links de Mega y Google Drive.
Todo el material de Club-HD desbloqueado y sin publicidad.

Click Aquí para más información.




Enlaces de Mega y Google Drive solo disponibles para Miembros VIP

Compra tu Membresía VIP y apoya a Club-HD!

ATENCIÓN! Tenemos TODO el material de Club-HD disponible por Mega y Google Drive, enlaces 100% activos y online hasta la fecha

Llévate tus cuentas Mega PRO III gratis con tu membresía VIP!
Todos los posts vivos con links de Mega y Google Drive.
Todo el material de Club-HD desbloqueado y sin publicidad.

Click Aquí para más información.



Para ver este contenido oculto, debes dar click en una de las siguientes reacciones : Like Like, Love Love, Haha Haha, Wow Wow, Sad Sad, Angry Angry



Para ver este contenido oculto, debes dar click en una de las siguientes reacciones : Like Like, Love Love, Haha Haha, Wow Wow, Sad Sad, Angry Angry



 
Última edición por un moderador:

Usuarios Que Están Viendo Este Tema (Total: 1, Miembros: 0, Invitados: 1)

Quién Leyó Este Tema (Total Miembros: 1)

Arriba