Paranormal Activity 4 (2012) UNRATED m-720p Dual Latino-Inglés [Subt. Esp-Ing] (Terror)

Maestro Revolver

Well-known member
Miembro del Staff
Administrador
Registro
9 Ago 2012
Mensajes
3.569
Reacciones
59.341
Puntos
113

Reputation:









TÍTULO ORIGINAL: Paranormal Activity 4
AÑO: 2012
DURACIÓN: 88 min.
PAÍS: USA
DIRECTOR: Henry Joost, Ariel Schulman
GUIÓN: Zack Estrin, Oren Peli
REPARTO: Katie Featherston, Kathryn Newton, Matt Shively, Brady Allen, Alisha Boe, Tommy Miranda
PRODUCTORA: Paramount Pictures
GÉNERO: Terror | Sobrenatural. Casas encantadas. Secuela
: http://www.imdb.com/title/tt2109184/






Todo transcurre cinco años después de los sucesos de "Paranormal Activity 2", que terminó con el secuestro de Hunter por parte de Katie. En la actualidad, Katie y Hunter, que ahora se llama 'Robbie', se han trasladado a una nueva casa y sus vecinos, Alicia y su madre, comienzan a experimentar sucesos paranormales que ocurren en su casa.
























La pelicula NO tiene ninguna marca... solo colocamos el nombre de esta web en las capturas






Código:
General
Format                                   : Matroska
Format version                           : Version 2
File size                                : 2.52 GiB
Duration                                 : 1h 36mn
Overall bit rate                         : 3 737 Kbps
Movie name                               : www.club-hd.com
Encoded date                             : UTC 2013-01-17 16:25:34
Writing application                      : mkvmerge v5.7.0 ('The Whirlwind') built on Jul  8 2012 20:08:51
Writing library                          : libebml v1.2.3 + libmatroska v1.3.0

Video
ID                                       : 1
Format                                   : AVC
Format/Info                              : Advanced Video Codec
Format profile                           : High@L4.1
Format settings, CABAC                   : Yes
Format settings, ReFrames                : 9 frames
Codec ID                                 : V_MPEG4/ISO/AVC
Duration                                 : 1h 36mn
Bit rate                                 : 2 666 Kbps
Width                                    : 1 280 pixels
Height                                   : 720 pixels
Display aspect ratio                     : 16:9
Frame rate mode                          : Constant
Frame rate                               : 23.976 fps
Color space                              : YUV
Chroma subsampling                       : 4:2:0
Bit depth                                : 8 bits
Scan type                                : Progressive
Bits/(Pixel*Frame)                       : 0.121
Stream size                              : 1.74 GiB (69%)
Title                                    : www.club-hd.com
Writing library                          : x264 core 129 r2245 bc13772
Language                                 : English
Default                                  : Yes
Forced                                   : No

Audio #1
ID                                       : 2
Format                                   : AC-3
Format/Info                              : Audio Coding 3
Mode extension                           : CM (complete main)
Format settings, Endianness              : Big
Codec ID                                 : A_AC3
Duration                                 : 1h 36mn
Bit rate mode                            : Constant
Bit rate                                 : 640 Kbps
Channel(s)                               : 6 channels
Channel positions                        : Front: L C R, Side: L R, LFE
Sampling rate                            : 48.0 KHz
Bit depth                                : 16 bits
Compression mode                         : Lossy
Stream size                              : 443 MiB (17%)
Title                                    : www.club-hd.com  >>  Latino
Language                                 : Spanish
Default                                  : Yes
Forced                                   : No

Audio #2
ID                                       : 3
Format                                   : AC-3
Format/Info                              : Audio Coding 3
Mode extension                           : CM (complete main)
Format settings, Endianness              : Big
Codec ID                                 : A_AC3
Duration                                 : 1h 36mn
Bit rate mode                            : Constant
Bit rate                                 : 448 Kbps
Channel(s)                               : 6 channels
Channel positions                        : Front: L C R, Side: L R, LFE
Sampling rate                            : 48.0 KHz
Bit depth                                : 16 bits
Compression mode                         : Lossy
Stream size                              : 310 MiB (12%)
Title                                    : www.club-hd.com  >>  Inglés
Language                                 : English
Default                                  : No
Forced                                   : No

Text #1
ID                                       : 4
Format                                   : UTF-8
Codec ID                                 : S_TEXT/UTF8
Codec ID/Info                            : UTF-8 Plain Text
Title                                    : Forzados
Language                                 : Spanish
Default                                  : Yes
Forced                                   : No

Text #2
ID                                       : 5
Format                                   : UTF-8
Codec ID                                 : S_TEXT/UTF8
Codec ID/Info                            : UTF-8 Plain Text
Language                                 : Spanish
Default                                  : No
Forced                                   : No

Text #3
ID                                       : 6
Format                                   : UTF-8
Codec ID                                 : S_TEXT/UTF8
Codec ID/Info                            : UTF-8 Plain Text
Language                                 : English
Default                                  : No
Forced                                   : No

Menu
00:00:00.000                             : en:Chapter 1
00:11:58.343                             : en:Chapter 2
00:24:36.475                             : en:Chapter 3
00:31:12.078                             : en:Chapter 4
00:34:09.047                             : en:Chapter 5
00:40:50.448                             : en:Chapter 6
00:44:05.059                             : en:Chapter 7
00:46:10.768                             : en:Chapter 8
00:55:44.341                             : en:Chapter 9
01:00:02.599                             : en:Chapter 10
01:04:09.262                             : en:Chapter 11
01:11:46.302                             : en:Chapter 12
01:16:00.556                             : en:Chapter 13
01:22:23.564                             : en:Chapter 14
01:32:08.815                             : en:Chapter 15









Enlaces de Mega y Fireload solo disponibles para Miembros VIP

Compra tu Membresía VIP y apoya a Club-HD!

ATENCIÓN! Tenemos TODO el material de Club-HD disponible por Mega y Fireload, enlaces 100% activos y online hasta la fecha

Llévate tus cuentas Mega PRO II gratis con tu membresía VIP!
Todos los posts vivos con links de Mega y Fireload.
Todo el material de Club-HD desbloqueado y sin publicidad.

Click Aquí para más información.




Enlaces de Mega y Fireload solo disponibles para Miembros VIP

Compra tu Membresía VIP y apoya a Club-HD!

ATENCIÓN! Tenemos TODO el material de Club-HD disponible por Mega y Fireload, enlaces 100% activos y online hasta la fecha

Llévate tus cuentas Mega PRO II gratis con tu membresía VIP!
Todos los posts vivos con links de Mega y Fireload.
Todo el material de Club-HD desbloqueado y sin publicidad.

Click Aquí para más información.



Para ver este contenido oculto, debes dar click en una de las siguientes reacciones : Like Like, Love Love, Haha Haha, Wow Wow, Sad Sad, Angry Angry
 
Última edición:

Yonatan

Admin
Miembro del Staff
Administrador
Registro
27 Ago 2012
Mensajes
1.768
Reacciones
3.728
Puntos
113
Edad
28
Ubicación
Chile, Sexta Región

Reputation:

Gracias Master! me la llevo ahora mismo, que perfecta calidad siempre nos traes lo mejor de lo mejor :D
 

Usuarios Que Están Viendo Este Tema (Total: 1, Miembros: 0, Invitados: 1)

Arriba