ParaNorman (2012) m-720p Dual Latino-Inglés [Subt. Esp-Ing] (Animación)

Maestro Revolver

Well-known member
Miembro del Staff
Administrador
Registro
9 Ago 2012
Mensajes
3.569
Reacciones
59.471
Puntos
113

Reputation:









TÍTULO ORIGINAL: ParaNorman
AÑO: 2012
DURACIÓN: 92 min.
PAÍS: USA
DIRECTOR: Chris Butler, Sam Fell
GUIÓN: Chris Butler
REPARTO: Animation
PRODUCTORA: Focus Features / LAIKA
GÉNERO: Animación. Fantástico. Comedia | Comedia de terror. Zombis. Stop Motion. 3-D
http://www.imdb.com/title/tt1623288/





Los aterrorizados habitantes de un pueblo asediado por zombis sólo pueden pedir ayuda al incomprendido Norman, un joven que sabe hablar con los muertos. Pero éste, para salvar a su pueblo de una antigua maldición, no sólo tendrá que enfrentarse con zombis, sino también con brujas y, sobre todo, con un grupo de adultos subnormales.
























La pelicula NO tiene ninguna marca... solo colocamos el nombre de esta web en las capturas






Código:
General
Format                                   : Matroska
Format version                           : Version 2
File size                                : 2.42 GiB
Duration                                 : 1h 32mn
Overall bit rate                         : 3 750 Kbps
Movie name                               : www.club-hd.com
Encoded date                             : UTC 2012-11-18 10:08:45
Writing application                      : mkvmerge v5.7.0 ('The Whirlwind') built on Jul  8 2012 20:08:51
Writing library                          : libebml v1.2.3 + libmatroska v1.3.0

Video
ID                                       : 1
Format                                   : AVC
Format/Info                              : Advanced Video Codec
Format profile                           : High@L4.1
Format settings, CABAC                   : Yes
Format settings, ReFrames                : 9 frames
Codec ID                                 : V_MPEG4/ISO/AVC
Duration                                 : 1h 32mn
Bit rate                                 : 2 660 Kbps
Width                                    : 1 280 pixels
Height                                   : 534 pixels
Display aspect ratio                     : 2.40:1
Frame rate mode                          : Constant
Frame rate                               : 23.976 fps
Color space                              : YUV
Chroma subsampling                       : 4:2:0
Bit depth                                : 8 bits
Scan type                                : Progressive
Bits/(Pixel*Frame)                       : 0.162
Stream size                              : 1.67 GiB (69%)
Title                                    : www.club-hd.com
Writing library                          : x264 core 128 r2216 198a7ea
Language                                 : English
Default                                  : Yes
Forced                                   : No

Audio #1
ID                                       : 2
Format                                   : AC-3
Format/Info                              : Audio Coding 3
Mode extension                           : CM (complete main)
Format settings, Endianness              : Big
Codec ID                                 : A_AC3
Duration                                 : 1h 32mn
Bit rate mode                            : Constant
Bit rate                                 : 640 Kbps
Channel(s)                               : 6 channels
Channel positions                        : Front: L C R, Side: L R, LFE
Sampling rate                            : 48.0 KHz
Bit depth                                : 16 bits
Compression mode                         : Lossy
Stream size                              : 422 MiB (17%)
Title                                    : www.club-hd.com  >>  Latino
Language                                 : Spanish
Default                                  : Yes
Forced                                   : No

Audio #2
ID                                       : 3
Format                                   : AC-3
Format/Info                              : Audio Coding 3
Mode extension                           : CM (complete main)
Format settings, Endianness              : Big
Codec ID                                 : A_AC3
Duration                                 : 1h 32mn
Bit rate mode                            : Constant
Bit rate                                 : 448 Kbps
Channel(s)                               : 6 channels
Channel positions                        : Front: L C R, Side: L R, LFE
Sampling rate                            : 48.0 KHz
Bit depth                                : 16 bits
Compression mode                         : Lossy
Stream size                              : 296 MiB (12%)
Title                                    : www.club-hd.com  >>  Inglés
Language                                 : English
Default                                  : No
Forced                                   : No

Text #1
ID                                       : 4
Format                                   : UTF-8
Codec ID                                 : S_TEXT/UTF8
Codec ID/Info                            : UTF-8 Plain Text
Title                                    : Forzados
Language                                 : Spanish
Default                                  : Yes
Forced                                   : No

Text #2
ID                                       : 5
Format                                   : UTF-8
Codec ID                                 : S_TEXT/UTF8
Codec ID/Info                            : UTF-8 Plain Text
Language                                 : Spanish
Default                                  : No
Forced                                   : No

Text #3
ID                                       : 6
Format                                   : UTF-8
Codec ID                                 : S_TEXT/UTF8
Codec ID/Info                            : UTF-8 Plain Text
Language                                 : English
Default                                  : No
Forced                                   : No

Menu
00:00:00.000                             : en:Chapter 1
00:04:55.420                             : en:Chapter 2
00:08:29.426                             : en:Chapter 3
00:11:38.865                             : en:Chapter 4
00:15:10.576                             : en:Chapter 5
00:18:10.673                             : en:Chapter 6
00:21:54.146                             : en:Chapter 7
00:26:25.501                             : en:Chapter 8
00:30:04.970                             : en:Chapter 9
00:33:56.117                             : en:Chapter 10
00:38:16.920                             : en:Chapter 11
00:43:06.542                             : en:Chapter 12
00:49:36.849                             : en:Chapter 13
00:52:46.789                             : en:Chapter 14
00:56:46.194                             : en:Chapter 15
01:01:15.964                             : en:Chapter 16
01:05:53.575                             : en:Chapter 17
01:11:51.057                             : en:Chapter 18
01:18:19.486                             : en:Chapter 19
01:25:07.394                             : en:Chapter 20




Sin Contraseña | Simple Extracción





Links Intercambiables





Enlaces de Mega y Fireload solo disponibles para Miembros VIP

Compra tu Membresía VIP y apoya a Club-HD!

ATENCIÓN! Tenemos TODO el material de Club-HD disponible por Mega y Fireload, enlaces 100% activos y online hasta la fecha

Llévate tus cuentas Mega PRO II gratis con tu membresía VIP!
Todos los posts vivos con links de Mega y Fireload.
Todo el material de Club-HD desbloqueado y sin publicidad.

Click Aquí para más información.




Enlaces de Mega y Fireload solo disponibles para Miembros VIP

Compra tu Membresía VIP y apoya a Club-HD!

ATENCIÓN! Tenemos TODO el material de Club-HD disponible por Mega y Fireload, enlaces 100% activos y online hasta la fecha

Llévate tus cuentas Mega PRO II gratis con tu membresía VIP!
Todos los posts vivos con links de Mega y Fireload.
Todo el material de Club-HD desbloqueado y sin publicidad.

Click Aquí para más información.


Para ver este contenido oculto, debes dar click en una de las siguientes reacciones : Like Like, Love Love, Haha Haha, Wow Wow, Sad Sad, Angry Angry



 
Última edición:

Mate78

Ladron de mi cerebro
Miembro del Staff
Súper Moderador
Registro
27 Ago 2012
Mensajes
1.237
Reacciones
924
Puntos
113

Reputation:

gracias a Dios que volviste , graciassssss BESTIA Hurr4hcl4p_PRT:LXR:
 

Yonatan

Admin
Miembro del Staff
Administrador
Registro
27 Ago 2012
Mensajes
1.768
Reacciones
3.736
Puntos
113
Edad
28
Ubicación
Chile, Sexta Región

Reputation:

Gracias Maestro de Maestros, es bueno ver que ya estas de vuelta Tb_up3
 

Usuarios Que Están Viendo Este Tema (Total: 1, Miembros: 0, Invitados: 1)

Arriba