Pearl Harbor (2001) 720p Dual Latino-Ingles [Subt. Esp] (Acción-Drama)

Maestro Revolver

Well-known member
Miembro del Staff
Administrador
Registro
9 Ago 2012
Mensajes
3.569
Reacciones
59.354
Puntos
113

Reputation:









TÍTULO ORIGINAL: Pearl Harbor
AÑO: 2001
DURACIÓN: 170 min.
PAÍS: USA
DIRECTOR: Michael Bay
GUIÓN: Randall Wallace
REPARTO: Ben Affleck, Josh Hartnett, Kate Beckinsale, Cuba Gooding Jr., Alec Baldwin, Jon Voight, Tom Sizemore, Dan Aykroyd, Colm Feore, Cary-Hiroyuki Tagawa, Matthew Davis, Ewen Bremner, Jaime King, William Fichtner, John Diehl, Leland Orser, Tomas Arana, Jennifer Garner, Eric Christian Olsen, Sara Rue
PRODUCTORA: Touchstone Pictures / Jerry Bruckheimer Films
GÉNERO: Bélico. Acción. Drama. Romance | II Guerra Mundial. Pearl Harbor. Drama romántico. Aviones






Segunda Guerra Mundial (1939-1945). Rafe y Danny crecieron juntos en una zona rural estadounidense y su larga amistad se mantiene cuando ambos ingresan como pilotos en las fuerzas aéreas. Rafe encontró en Evelyn, una valiente enfermera, al amor de su vida, pero pronto tuvieron que separarse, al ser llamado Rafe para servir en la Fuerza Aérea Británica (RAF) contra los alemanes. Mientras tanto, Danny y Evelyn son enviados a la base aérea de Pearl Harbor en Hawai...




















La pelicula NO tiene ninguna marca... solo coloque mi nombre de usuario en las capturas






Código:
General
Complete name                            : Pearl Harbor (2001) 720p Dual Latino-Ingles [Subt.Esp].mkv
Format                                   : Matroska
Format version                           : Version 4 / Version 2
File size                                : 4.18 GiB
Duration                                 : 3h 3mn
Overall bit rate                         : 3 268 Kbps
Movie name                               : www.club-hd.com -> Pearl Harbor (2001) 720p Dual Latino-Ingles [Subt.Esp]
Encoded date                             : UTC 2015-04-16 19:49:54
Writing application                      : mkvmerge v7.3.0 ('Nouages') 64bit built on Oct 22 2014 18:53:34
Writing library                          : libebml v1.3.0 + libmatroska v1.4.1

Video
ID                                       : 1
Format                                   : AVC
Format/Info                              : Advanced Video Codec
Format profile                           : High@L4.1
Format settings, CABAC                   : Yes
Format settings, ReFrames                : 4 frames
Codec ID                                 : V_MPEG4/ISO/AVC
Duration                                 : 3h 3mn
Bit rate                                 : 2 563 Kbps
Width                                    : 1 280 pixels
Height                                   : 528 pixels
Display aspect ratio                     : 2.40:1
Frame rate mode                          : Constant
Frame rate                               : 23.976 fps
Color space                              : YUV
Chroma subsampling                       : 4:2:0
Bit depth                                : 8 bits
Scan type                                : Progressive
Bits/(Pixel*Frame)                       : 0.158
Stream size                              : 3.28 GiB (78%)
Title                                    : Pearl Harbor (2001) 720p Dual Latino-Ingles [Subt.Esp]
Writing library                          : x264 core 68 r1183M f21daff
Encoding settings                        : cabac=1 / ref=4 / deblock=1:-3:-3 / analyse=0x3:0x113 / me=umh / subme=7 / psy_rd=1.0:0.0 / mixed_ref=1 / me_range=16 / chroma_me=1 / trellis=2 / 8x8dct=1 / cqm=2 / deadzone=21,11 / chroma_qp_offset=-2 / threads=6 / nr=0 / decimate=0 / mbaff=0 / bframes=3 / b_pyramid=1 / b_adapt=1 / b_bias=0 / direct=3 / wpredb=1 / keyint=250 / keyint_min=25 / scenecut=40 / rc=crf / crf=23.5 / qcomp=0.60 / qpmin=10 / qpmax=51 / qpstep=4 / vbv_maxrate=38000 / vbv_bufsize=30000 / ip_ratio=1.40 / pb_ratio=1.30 / aq=1:1.00
Language                                 : English
Default                                  : Yes
Forced                                   : No

Audio #1
ID                                       : 2
Format                                   : AC-3
Format/Info                              : Audio Coding 3
Mode extension                           : CM (complete main)
Format settings, Endianness              : Big
Codec ID                                 : A_AC3
Duration                                 : 3h 3mn
Bit rate mode                            : Constant
Bit rate                                 : 256 Kbps
Channel(s)                               : 2 channels
Channel positions                        : Front: L R
Sampling rate                            : 48.0 KHz
Bit depth                                : 16 bits
Compression mode                         : Lossy
Stream size                              : 335 MiB (8%)
Title                                    : Pearl Harbor (2001) - Español Latino AC3 2.0 - 256 Kbps (WEB)
Language                                 : Spanish
Default                                  : Yes
Forced                                   : No

Audio #2
ID                                       : 3
Format                                   : AC-3
Format/Info                              : Audio Coding 3
Mode extension                           : CM (complete main)
Format settings, Endianness              : Big
Codec ID                                 : A_AC3
Duration                                 : 3h 3mn
Bit rate mode                            : Constant
Bit rate                                 : 384 Kbps
Channel(s)                               : 6 channels
Channel positions                        : Front: L C R, Side: L R, LFE
Sampling rate                            : 48.0 KHz
Bit depth                                : 16 bits
Compression mode                         : Lossy
Stream size                              : 503 MiB (12%)
Title                                    : Pearl Harbor (2001) - Inglés AC3 5.1 - 384 Kbps
Language                                 : English
Default                                  : No
Forced                                   : No

Text #1
ID                                       : 4
Format                                   : UTF-8
Codec ID                                 : S_TEXT/UTF8
Codec ID/Info                            : UTF-8 Plain Text
Title                                    : Pearl Harbor (2001) - Subtítulos Español
Language                                 : Spanish
Default                                  : No
Forced                                   : No

Text #2
ID                                       : 5
Format                                   : UTF-8
Codec ID                                 : S_TEXT/UTF8
Codec ID/Info                            : UTF-8 Plain Text
Title                                    : Pearl Harbor (2001) - Subtítulos Español Forzados
Language                                 : Spanish
Default                                  : Yes
Forced                                   : No

Menu
00:00:00.000                             : en:Chapter 1
00:10:00.000                             : en:Chapter 2
00:20:00.000                             : en:Chapter 3
00:30:00.000                             : en:Chapter 4
00:40:00.000                             : en:Chapter 5
00:50:00.000                             : en:Chapter 6
01:00:00.000                             : en:Chapter 7
01:10:00.000                             : en:Chapter 8
01:20:00.000                             : en:Chapter 9
01:30:00.000                             : en:Chapter 10
01:40:00.000                             : en:Chapter 11
01:50:00.000                             : en:Chapter 12
02:00:00.000                             : en:Chapter 13
02:10:00.000                             : en:Chapter 14
02:20:00.000                             : en:Chapter 15
02:30:00.000                             : en:Chapter 16
02:40:00.000                             : en:Chapter 17
02:50:00.000                             : en:Chapter 18




Un agradecimiento muy especial a nuestro amigo IACC por conseguir, editar y sincronizar este audio único en toda internet.

Descarga sólo el audio Latino de este aporte, aquí.


Nota: Este audio no tiene partes en Ingles ni en Español de España como lo tienen en otras webs. En fin, el audio en Español Latino esta completo con sus correspondientes partes en Japonés. :dplgar:





Links Intercambiables





Enlaces de Mega y Fireload solo disponibles para Miembros VIP

Compra tu Membresía VIP y apoya a Club-HD!

ATENCIÓN! Tenemos TODO el material de Club-HD disponible por Mega y Fireload, enlaces 100% activos y online hasta la fecha

Llévate tus cuentas Mega PRO II gratis con tu membresía VIP!
Todos los posts vivos con links de Mega y Fireload.
Todo el material de Club-HD desbloqueado y sin publicidad.

Click Aquí para más información.




Enlaces de Mega y Fireload solo disponibles para Miembros VIP

Compra tu Membresía VIP y apoya a Club-HD!

ATENCIÓN! Tenemos TODO el material de Club-HD disponible por Mega y Fireload, enlaces 100% activos y online hasta la fecha

Llévate tus cuentas Mega PRO II gratis con tu membresía VIP!
Todos los posts vivos con links de Mega y Fireload.
Todo el material de Club-HD desbloqueado y sin publicidad.

Click Aquí para más información.



Enlaces de Mega y Fireload solo disponibles para Miembros VIP

Compra tu Membresía VIP y apoya a Club-HD!

ATENCIÓN! Tenemos TODO el material de Club-HD disponible por Mega y Fireload, enlaces 100% activos y online hasta la fecha

Llévate tus cuentas Mega PRO II gratis con tu membresía VIP!
Todos los posts vivos con links de Mega y Fireload.
Todo el material de Club-HD desbloqueado y sin publicidad.

Click Aquí para más información.



Para ver este contenido oculto, debes dar click en una de las siguientes reacciones : Like Like, Love Love, Haha Haha, Wow Wow, Sad Sad, Angry Angry
 
Última edición:

SilverbackECU

Member
Registro
28 Ago 2012
Mensajes
65
Reacciones
4
Puntos
8
Edad
45

Reputation:

Peliculón, Revolver21 y a todos los q hacen posible este sueño sea realidad MUCHAS GRACIAS. y Adelante.
 

kr2000

Member
Registro
27 Ago 2012
Mensajes
196
Reacciones
1
Puntos
18

Reputation:

Nunca la he visto, pero me la han recomendado mucho... Excelente aporte...
 

Usuarios Que Están Viendo Este Tema (Total: 1, Miembros: 0, Invitados: 1)

Arriba