Percy Jackson and the Olympians: The Lightning Thief (2010) 720p BDRip Dual Latino-Inglés [Subt. Esp] (Fantástico. Aventura)

Maestro Revolver

Well-known member
Miembro del Staff
Administrador
Registro
9 Ago 2012
Mensajes
3.567








TÍTULO ORIGINAL: Percy Jackson and the Olympians: The Lightning Thief
AÑO: 2010
DURACIÓN: 118 min.
PAÍS: USA
DIRECTOR: Chris Columbus
GUIÓN: Craig Titley (Historia: Rick Riordan)
REPARTO: Logan Lerman, Brandon T. Jackson, Alexandra Daddario, Pierce Brosnan, Catherine Keener, Rosario Dawson, Uma Thurman, Sean Bean, Kevin McKidd, Steve Coogan, Joe Pantoliano, Melina Kanakaredes, Erica Cerra, Chelan Simmons, Jake Abel, Serinda Swan, Luke Camilleri, Stefanie von Pfetten
PRODUCTORA: Coproducción EEUU-Canadá; 1492 Pictures / Fox 2000 Pictures / Imprint Entertainmen
GÉNERO: Fantástico. Aventuras. Comedia | Mitología. Adolescencia
: http://www.imdb.com/title/tt0814255/






Adaptación de la novela publicada en España con el título de 'El Ladrón del Rayo. Tras su estancia en un campamento, Percy, un chico aparentemente normal, (Lerman) averigua que es hijo de Poseidón, el dios de los mares, y que sus dos amigos son: uno también un semidiós y el otro un sátiro. Los tres recorrerán un país plagado de monstruos mitológicos, para restaurar el orden cósmico antes de que se ponga el sol en el día más largo del año. Percy trata de recuperar la paz, rescatar a su madre, conocer a su padre y comprender quién es él mismo. Todo un reto que debe superar en apenas diez días.
























La pelicula NO tiene ninguna marca... solo colocamos el nombre de esta web en las capturas






Código:
General
Format                                   : Matroska
Format version                           : Version 2
File size                                : 3.02 GiB
Duration                                 : 1h 58mn
Overall bit rate                         : 3 648 Kbps
Movie name                               : www.club-hd.com
Encoded date                             : UTC 2013-11-28 01:02:59
Writing application                      : mkvmerge v5.7.0 ('The Whirlwind') built on Jul  8 2012 20:08:51
Writing library                          : libebml v1.2.3 + libmatroska v1.3.0

Video
ID                                       : 1
Format                                   : AVC
Format/Info                              : Advanced Video Codec
Format profile                           : High@L4.1
Format settings, CABAC                   : Yes
Format settings, ReFrames                : 9 frames
Codec ID                                 : V_MPEG4/ISO/AVC
Duration                                 : 1h 58mn
Bit rate                                 : 2 752 Kbps
Width                                    : 1 280 pixels
Height                                   : 544 pixels
Display aspect ratio                     : 2.35:1
Frame rate mode                          : Constant
Frame rate                               : 23.976 fps
Color space                              : YUV
Chroma subsampling                       : 4:2:0
Bit depth                                : 8 bits
Scan type                                : Progressive
Bits/(Pixel*Frame)                       : 0.165
Stream size                              : 2.22 GiB (73%)
Title                                    : www.club-hd.com
Writing library                          : x264 core 140 r2377 1ca7bb9
Language                                 : English
Default                                  : Yes
Forced                                   : No

Audio #1
ID                                       : 2
Format                                   : AC-3
Format/Info                              : Audio Coding 3
Mode extension                           : CM (complete main)
Format settings, Endianness              : Big
Codec ID                                 : A_AC3
Duration                                 : 1h 58mn
Bit rate mode                            : Constant
Bit rate                                 : 448 Kbps
Channel(s)                               : 6 channels
Channel positions                        : Front: L C R, Side: L R, LFE
Sampling rate                            : 48.0 KHz
Bit depth                                : 16 bits
Compression mode                         : Lossy
Delay relative to video                  : 1s 0ms
Stream size                              : 380 MiB (12%)
Title                                    : www.club-hd.com  > Latino
Language                                 : Spanish
Default                                  : Yes
Forced                                   : No

Audio #2
ID                                       : 3
Format                                   : AC-3
Format/Info                              : Audio Coding 3
Mode extension                           : CM (complete main)
Format settings, Endianness              : Big
Codec ID                                 : A_AC3
Duration                                 : 1h 58mn
Bit rate mode                            : Constant
Bit rate                                 : 448 Kbps
Channel(s)                               : 6 channels
Channel positions                        : Front: L C R, Side: L R, LFE
Sampling rate                            : 48.0 KHz
Bit depth                                : 16 bits
Compression mode                         : Lossy
Stream size                              : 380 MiB (12%)
Title                                    : www.club-hd.com  > Inglés
Language                                 : English
Default                                  : No
Forced                                   : No

Text
ID                                       : 4
Format                                   : UTF-8
Codec ID                                 : S_TEXT/UTF8
Codec ID/Info                            : UTF-8 Plain Text
Language                                 : Spanish
Default                                  : No
Forced                                   : No

Menu
00:00:00.000                             : en:The Fight of His Life
00:04:39.404                             : en:Seven Minutes (Main Titles)
00:07:28.448                             : en:Show Some Respect
00:09:47.295                             : en:Half God, Half Human
00:14:56.020                             : en:Your Father Loves You
00:20:28.894                             : en:Camp Half Blood
00:24:39.770                             : en:The Surprises Mount Up
00:31:09.993                             : en:Let the Battle Begin
00:34:25.939                             : en:Go to the Water
00:38:50.578                             : en:Straight From Hell
00:41:23.147                             : en:An Actual Quest
00:43:15.384                             : en:Guide to the Underworld
00:46:49.557                             : en:Auntie Em's Garden Emporium
00:50:05.836                             : en:Don't Look!
00:56:49.615                             : en:Forbidden
01:01:35.400                             : en:Annabeth's Mom
01:04:49.260                             : en:Twice as Bad
01:10:20.591                             : en:Going to Vegas!
01:13:32.783                             : en:Don't Eat the Flower
01:20:58.353                             : en:Climb Aboard
01:25:16.862                             : en:Give Me the Bolt
01:29:38.915                             : en:Only Three Pearls
01:33:42.742                             : en:To Bring Olympus Down
01:38:35.701                             : en:Son of Poscidon
01:41:45.850                             : en:Time Has Run Out
01:44:47.114                             : en:In Your Thoughts and Dreams
01:47:43.582                             : en:Welcome Home
01:52:12.017                             : en:End Titles (Do Not Open)








Enlaces de Mega y Google Drive solo disponibles para Miembros VIP

Compra tu Membresía VIP y apoya a Club-HD!

ATENCIÓN! Tenemos TODO el material de Club-HD disponible por Mega y Google Drive, enlaces 100% activos y online hasta la fecha

Llévate tus cuentas Mega PRO III gratis con tu membresía VIP!
Todos los posts vivos con links de Mega y Google Drive.
Todo el material de Club-HD desbloqueado y sin publicidad.

Click Aquí para más información.



Para ver este contenido oculto, debes dar click en una de las siguientes reacciones : Like Like, Love Love, Haha Haha, Wow Wow, Sad Sad, Angry Angry

 
Última edición por un moderador:

Joker

Well-known member
Miembro del Staff
Súper Moderador
Registro
27 Ago 2012
Mensajes
1.349
Ubicación
Arkham Asylum
Neeee, si me llevo la versión 1080p, ya descargue la segunda en la misma versión así que de una vez las 2 iguales...

Ademas mi hermana fue a ver la segunda al cine y si le gusto, sirve de que le llevo la primera y las vemos :p

Muchas Gracias!!!

Saludos :D
 

Usuarios Que Están Viendo Este Tema (Total: 1, Miembros: 0, Invitados: 1)

Quién Leyó Este Tema (Total Miembros: 1)

Arriba