Phantom (2013) 720p BDRip Inglés [Subt. Esp] (Thriller)

Max

Admin
Miembro del Staff
Administrador
Miembro VIP
Registro
8 Ago 2012
Mensajes
6.036
Ubicación
Disco C




Título original: Phantom
Año: 2013
Duración: 97 min.
País: Estados Unidos
Director: Todd Robinson
Guión: Todd Robinson
Música: Jeff Rona
Fotografía: Byron Werner
Reparto: Ed Harris, David Duchovny, William Fichtner, Lance Henriksen, Johnathon Schaech, Jason Beghe, Sean Patrick Flanery, Jason Gray-Stanford, Julian Adams
Productora: RCR Media Group / Scuttlebutt Entertainment / Solar Filmworks
Género: Thriller | Submarinos

http://www.imdb.com/title/tt1922685/?ref_=fn_al_tt_1






Mientras la tensión entre las grandes superpotencias crece, los Estados Unidos realizan maniobras submarinas en el Pacífico. De la tripulación forma parte el capitán Dmitri Zubov, un experto marino que vive atormentado por su pasado. La misión consiste en averiguar cuál es el objetivo del submarino soviético B756. Cuando el B756 deja de emitir un informe de posición, el comando Fleet da al buque por desaparecido. Mientras tanto, en las profundidades del Pacífico, el capitán Zubov y la tripulación del B-756 descubrirán un complot que podría destruir a la humanidad.





























Código:
General
Complete name                            : Phantom (2013) 720p BDRip Inglés [Subt. Esp].mkv
Format                                   : Matroska
Format version                           : Version 2
File size                                : 2.20 GiB
Duration                                 : 1h 38mn
Overall bit rate                         : 3 201 Kbps
Movie name                               : www.club-hd.com --> Phantom (2013) 720p BDRip Inglés [Subt. Esp]
Encoded date                             : UTC 2013-06-14 19:05:02
Writing application                      : mkvmerge v5.8.0 ('No Sleep / Pillow') built on Sep  2 2012 15:37:04
Writing library                          : libebml v1.2.3 + libmatroska v1.3.0

Video
ID                                       : 1
Format                                   : AVC
Format/Info                              : Advanced Video Codec
Format profile                           : High@L4.1
Format settings, CABAC                   : Yes
Format settings, ReFrames                : 9 frames
Muxing mode                              : Header stripping
Codec ID                                 : V_MPEG4/ISO/AVC
Duration                                 : 1h 38mn
Bit rate                                 : 2 753 Kbps
Width                                    : 1 280 pixels
Height                                   : 546 pixels
Display aspect ratio                     : 2.35:1
Frame rate mode                          : Constant
Frame rate                               : 23.976 fps
Color space                              : YUV
Chroma subsampling                       : 4:2:0
Bit depth                                : 8 bits
Scan type                                : Progressive
Bits/(Pixel*Frame)                       : 0.164
Stream size                              : 1.85 GiB (84%)
Title                                    : www.club-hd.com --> Phantom (2013) 720p BDRip Inglés [Subt. Esp]
Writing library                          : x264 core 130 r2273 b3065e6
Encoding settings                        : cabac=1 / ref=9 / deblock=1:-3:-3 / analyse=0x3:0x113 / me=umh / subme=10 / psy=1 / psy_rd=1.00:0.00 / mixed_ref=1 / me_range=16 / chroma_me=1 / trellis=2 / 8x8dct=1 / cqm=0 / deadzone=21,11 / fast_pskip=1 / chroma_qp_offset=-2 / threads=12 / lookahead_threads=1 / sliced_threads=0 / nr=0 / decimate=1 / interlaced=0 / bluray_compat=0 / constrained_intra=0 / bframes=3 / b_pyramid=2 / b_adapt=1 / b_bias=0 / direct=1 / weightb=1 / open_gop=0 / weightp=2 / keyint=250 / keyint_min=23 / scenecut=40 / intra_refresh=0 / rc=2pass / mbtree=0 / bitrate=2753 / ratetol=1.0 / qcomp=0.60 / qpmin=0 / qpmax=69 / qpstep=4 / cplxblur=20.0 / qblur=0.5 / ip_ratio=1.40 / pb_ratio=1.30 / aq=1:0.80
Language                                 : English
Default                                  : Yes
Forced                                   : No

Audio
ID                                       : 2
Format                                   : AC-3
Format/Info                              : Audio Coding 3
Mode extension                           : CM (complete main)
Format settings, Endianness              : Big
Muxing mode                              : Header stripping
Codec ID                                 : A_AC3
Duration                                 : 1h 38mn
Bit rate mode                            : Constant
Bit rate                                 : 448 Kbps
Channel(s)                               : 6 channels
Channel positions                        : Front: L C R, Side: L R, LFE
Sampling rate                            : 48.0 KHz
Bit depth                                : 16 bits
Compression mode                         : Lossy
Stream size                              : 316 MiB (14%)
Title                                    : Phantom (2013) - Inglés AC3 5.1
Language                                 : English
Default                                  : Yes
Forced                                   : No

Text
ID                                       : 3
Format                                   : UTF-8
Codec ID                                 : S_TEXT/UTF8
Codec ID/Info                            : UTF-8 Plain Text
Title                                    : Phantom (2013) - Subtítulos Español
Language                                 : Spanish
Default                                  : Yes
Forced                                   : No

Menu
00:00:00.000                             : en:Chapter 1
00:03:47.144                             : en:Chapter 2
00:08:23.336                             : en:Chapter 3
00:11:38.072                             : en:Chapter 4
00:16:00.334                             : en:Chapter 5
00:19:33.381                             : en:Chapter 6
00:24:57.913                             : en:Chapter 7
00:27:55.716                             : en:Chapter 8
00:31:39.064                             : en:Chapter 9
00:37:07.976                             : en:Chapter 10
00:42:37.722                             : en:Chapter 11
00:47:16.834                             : en:Chapter 12
00:51:54.486                             : en:Chapter 13
00:56:09.825                             : en:Chapter 14
00:59:47.793                             : en:Chapter 15
01:03:51.661                             : en:Chapter 16
01:07:53.236                             : en:Chapter 17
01:10:04.158                             : en:Chapter 18
01:13:33.492                             : en:Chapter 19
01:16:47.311                             : en:Chapter 20
01:20:48.844                             : en:Chapter 21
01:24:20.806                             : en:Chapter 22
01:26:20.050                             : en:Chapter 23
01:30:17.579                             : en:Chapter 24








Enlaces de Mega y Google Drive solo disponibles para Miembros VIP

Compra tu Membresía VIP y apoya a Club-HD!

ATENCIÓN! Tenemos TODO el material de Club-HD disponible por Mega y Google Drive, enlaces 100% activos y online hasta la fecha

Llévate tus cuentas Mega PRO III gratis con tu membresía VIP!
Todos los posts vivos con links de Mega y Google Drive.
Todo el material de Club-HD desbloqueado y sin publicidad.

Click Aquí para más información.


Para ver este contenido oculto, debes dar click en una de las siguientes reacciones : Like Like, Love Love, Haha Haha, Wow Wow, Sad Sad, Angry Angry

 
Última edición:

Mate78

Ladron de mi cerebro
Miembro del Staff
Súper Moderador
Miembro VIP
Registro
27 Ago 2012
Mensajes
1.244
Esta si que no la esperaba todabia , TODO es posible en esta casa !!! gracias MAX !!!!:dplgar:
 

Nosferatu

Well-known member
Miembro del Staff
Súper Moderador
Miembro VIP
Registro
31 Ago 2012
Mensajes
2.275
Edad
45
Ubicación
Welcome to Hell!!
Muchas gracias por este estreno, veremos a ver que tal.:aplausos::aplausos::aplausos:

Como siempre son muy bien recibidos tus aportes.

Muchas gracias Monstruo Max.:aplausos::LXR::LXR:
 

Claudia

New member
Súper Moderador
Registro
28 Ago 2012
Mensajes
2.282
Edad
49
Ubicación
EN MI MUNDO REAL...
MMMMM que tenemos aqui un Estrenazo??? Veremos Max que tal, que bueno otro aporte tuyo....pues.....quiero mass!!!!!!!!

MUCHAS GRACIAS!!!!!:aplausos:Pl4yb0y
 

Usuarios Que Están Viendo Este Tema (Total: 1, Miembros: 0, Invitados: 1)

Quién Leyó Este Tema (Total Miembros: 2)

Arriba