Phantom of the Paradise (1974) 720p BDRip Audio Inglés [Subt. Esp] (Musical. Terror)

Maestro Revolver

Well-known member
Miembro del Staff
Administrador
Registro
9 Ago 2012
Mensajes
3.569
Reacciones
59.480
Puntos
113

Reputation:








TÍTULO ORIGINAL: Phantom of the Paradise
AÑO: 1974
DURACIÓN: 92 min.
PAÍS: USA
DIRECTOR: Brian De Palma
GUIÓN: Brian De Palma
REPARTO: Paul Williams, William Finley, Jessica Harper, George Memmoli, Gerrit Graham
PRODUCTORA: 20th Century Fox
GÉNERO: Musical. Terror | Sátira. Música
: http://www.imdb.com/title/tt0071994/

PREMIOS: 1974: Nominada al Oscar: Mejor canción original de la BSO






Paul Williams escribió la partitura de este clásico del cine musical de terror, en el cual participa interpretando el papel del malvado magnate de la música perseguido por un compositor desfigurado al que mete en prisión para robarle sus composiciones. Una vez en libertad, el fantasma se enamora de la nueva estrella de la canción promocionada por el magnate, comenzando así su particular venganza.
























La pelicula NO tiene ninguna marca... solo colocamos el nombre de esta web en las capturas






Código:
General
Format                                   : Matroska
Format version                           : Version 2
File size                                : 3.65 GiB
Duration                                 : 1h 31mn
Overall bit rate                         : 5 705 Kbps
Movie name                               : www.club-hd.com
Encoded date                             : UTC 2013-03-28 19:34:20
Writing application                      : mkvmerge v5.7.0 ('The Whirlwind') built on Jul  8 2012 20:08:51
Writing library                          : libebml v1.2.3 + libmatroska v1.3.0

Video
ID                                       : 1
Format                                   : AVC
Format/Info                              : Advanced Video Codec
Format profile                           : High@L3.1
Format settings, CABAC                   : Yes
Format settings, ReFrames                : 4 frames
Codec ID                                 : V_MPEG4/ISO/AVC
Duration                                 : 1h 31mn
Bit rate                                 : 5 252 Kbps
Width                                    : 1 280 pixels
Height                                   : 688 pixels
Display aspect ratio                     : 1.85:1
Frame rate mode                          : Constant
Frame rate                               : 24.000 fps
Color space                              : YUV
Chroma subsampling                       : 4:2:0
Bit depth                                : 8 bits
Scan type                                : Progressive
Bits/(Pixel*Frame)                       : 0.248
Stream size                              : 3.29 GiB (90%)
Title                                    : www.club-hd.com
Writing library                          : x264 core 112
Language                                 : English
Default                                  : Yes
Forced                                   : No
Color primaries                          : BT.709
Transfer characteristics                 : BT.709
Matrix coefficients                      : BT.709

Audio
ID                                       : 2
Format                                   : AC-3
Format/Info                              : Audio Coding 3
Mode extension                           : CM (complete main)
Format settings, Endianness              : Big
Codec ID                                 : A_AC3
Duration                                 : 1h 31mn
Bit rate mode                            : Constant
Bit rate                                 : 448 Kbps
Channel(s)                               : 6 channels
Channel positions                        : Front: L C R, Side: L R, LFE
Sampling rate                            : 48.0 KHz
Bit depth                                : 16 bits
Compression mode                         : Lossy
Stream size                              : 293 MiB (8%)
Title                                    : www.club-hd.com
Language                                 : English
Default                                  : Yes
Forced                                   : No

Text
ID                                       : 3
Format                                   : UTF-8
Codec ID                                 : S_TEXT/UTF8
Codec ID/Info                            : UTF-8 Plain Text
Language                                 : Spanish
Default                                  : Yes
Forced                                   : No






Código:
[CENTER][SIZE=5]
www.club-hd.com[/SIZE][/CENTER]










Enlaces de Mega y Fireload solo disponibles para Miembros VIP

Compra tu Membresía VIP y apoya a Club-HD!

ATENCIÓN! Tenemos TODO el material de Club-HD disponible por Mega y Fireload, enlaces 100% activos y online hasta la fecha

Llévate tus cuentas Mega PRO II gratis con tu membresía VIP!
Todos los posts vivos con links de Mega y Fireload.
Todo el material de Club-HD desbloqueado y sin publicidad.

Click Aquí para más información.






Enlaces de Mega y Fireload solo disponibles para Miembros VIP

Compra tu Membresía VIP y apoya a Club-HD!

ATENCIÓN! Tenemos TODO el material de Club-HD disponible por Mega y Fireload, enlaces 100% activos y online hasta la fecha

Llévate tus cuentas Mega PRO II gratis con tu membresía VIP!
Todos los posts vivos con links de Mega y Fireload.
Todo el material de Club-HD desbloqueado y sin publicidad.

Click Aquí para más información.



Para ver este contenido oculto, debes dar click en una de las siguientes reacciones : Like Like, Love Love, Haha Haha, Wow Wow, Sad Sad, Angry Angry

 
Última edición:

Nosferatu

Well-known member
Súper Moderador
Registro
31 Ago 2012
Mensajes
2.275
Reacciones
1.362
Puntos
113
Edad
44
Ubicación
Welcome to Hell!!

Reputation:

EXCELLENT!!!!! Jajajajajaja. :OHHH::OHHH:Hurr4hd4nce2cl4pdance3:aplausos::aplausos:

Como se debe tener este super Clásico en HD, a recordar mi infancia.:llrnd2::llrnd2:Lr_5Lr_5

Eres enorme Super Monstruo R21!!!, Gracias Master, GRACIAS!!!:aplausos::aplausos::LXR::LXR::LXR:

Una excelente película muy pero muy recomendable....:dplgar::dplgar:

Se suspenden las demás descargas esta es prioridad,Desc_g_ pero ya...

PD: Gracias Nuevamente Master, Nunca cambies !!!!
 

Lug

Well-known member
Registro
24 Oct 2012
Mensajes
1.691
Reacciones
37
Puntos
48
Edad
62

Reputation:

Desc_g_
Excelente película y la música sin desperdicio.....
Muchas gracias...............
 

Omar Herrera

Well-known member
Miembro del Staff
Súper Moderador
Registro
27 Ago 2012
Mensajes
1.234
Reacciones
326
Puntos
83
Edad
32
Ubicación
Managua

Reputation:

WOW!!... Esto es un clasico senores, pase en vela la noche que vi esa pelicula aun cuando era un pichoncito :crcjd: la verdad nunca me imagine volver a ver esta pelicula en mi vida, pero aqui esta, Gracias Revolver! solo aqui existen estos grandes clasicos del terror, solo en Club-HD son los mejores chicos. GRACIAS!!
Desc_g_
 

Doctor Jason

New member
Súper Moderador
Registro
1 Sep 2012
Mensajes
2.400
Reacciones
4.210
Puntos
0
Ubicación
Buenos Aires

Reputation:

Muchas Gracias Revolver, esto si que no me lo esperaba!, que locura por dios!!!

PD: A Doctor Jason y a Alice Cooper le gustan los musicales de terror, -No es cierto Alice?

-Siiggh Siiigh, Doctor!!!

 
Última edición:

edward1080

Well-known member
Registro
23 Nov 2012
Mensajes
1.013
Reacciones
137
Puntos
63
Edad
34

Reputation:

Interesante!! nunca la vi... buen aporte!
 

Usuarios Que Están Viendo Este Tema (Total: 1, Miembros: 0, Invitados: 1)

Arriba