• Este aviso va dirigido a todos los nuevos miembros recien llegados a Club-HD. Les recordamos que la direccion URL de este sitio web es , asi que deben acceder únicamente por esta URL. Sean todos bienvenidos al Club!

Pinocchio (2019) BDRip Italiano [Sub.Lat-Ita] (Fantástico. Aventuras. Drama, Cuentos)

Tk

K.D.S 😳
Diseñador
Uploader
Miembro VIP
Registrado
1 May 2017
Mensajes
379
Puntos de reacción
4,658
Puntos
93
Sitio web
www.flickr.com




Otros Títulos : Pinocho


Adaptación de la clásica historia del muñeco de madera llamado Pinocho, que desea ser un niño de carne y hueso.
















Código:
Unique ID                                : 306971575915650777723265442497956890090 (0xE6F0933410243F611E2CF3BDDC0F45EA)
Complete name                            : Pinocchio (2019) 1080p BDRip Italiano [Sub.Lat-Ita].mkv
Format                                   : Matroska
Format version                           : Version 4
File size                                : 10.2 GiB
Duration                                 : 2 h 4 min
Overall bit rate                         : 11.7 Mb/s
Movie name                               : Pinocchio (2019) 1080p BDRip Italiano [www.club-hd.com]
Encoded date                             : UTC 2020-06-30 19:31:13
Writing application                      : mkvmerge v46.0.0 ('No Deeper Escape') 64-bit
Writing library                          : libebml v1.3.10 + libmatroska v1.5.2

Video
ID                                       : 1
Format                                   : AVC
Format/Info                              : Advanced Video Codec
Format profile                           : High@L4.1
Format settings                          : CABAC / 5 Ref Frames
Format settings, CABAC                   : Yes
Format settings, Reference frames        : 5 frames
Codec ID                                 : V_MPEG4/ISO/AVC
Duration                                 : 2 h 4 min
Bit rate                                 : 10.6 Mb/s
Width                                    : 1 920 pixels
Height                                   : 804 pixels
Display aspect ratio                     : 2.40:1
Frame rate mode                          : Constant
Frame rate                               : 24.000 FPS
Color space                              : YUV
Chroma subsampling                       : 4:2:0
Bit depth                                : 8 bits
Scan type                                : Progressive
Bits/(Pixel*Frame)                       : 0.287
Stream size                              : 9.28 GiB (91%)
Title                                    : Pinocchio (2019) 1080p BDRip Italiano [Sub.Lat-Ita]
Writing library                          : x264 core 160 r3000+53 e3e4c3e t_mod_New [(8 & 10)-bit@all X86_64]
Encoding settings                        : cabac=1 / ref=5 / deblock=1:-3:-3 / analyse=0x3:0x133 / me=umh / subme=10 / psy=1 / fade_compensate=0.00 / psy_rd=0.95:0.00 / mixed_ref=1 / me_range=32 / chroma_me=1 / trellis=2 / 8x8dct=1 / cqm=0 / deadzone=21,11 / fast_pskip=0 / chroma_qp_offset=-2 / threads=18 / lookahead_threads=3 / sliced_threads=0 / nr=0 / decimate=0 / interlaced=0 / bluray_compat=0 / constrained_intra=0 / fgo=0 / bframes=9 / b_pyramid=2 / b_adapt=2 / b_bias=0 / direct=3 / weightb=1 / open_gop=0 / weightp=2 / keyint=240 / keyint_min=24 / scenecut=40 / intra_refresh=0 / rc_lookahead=60 / rc=crf / mbtree=0 / crf=15.0000 / qcomp=0.65 / qpmin=0:0:0 / qpmax=69:69:69 / qpstep=4 / vbv_maxrate=62500 / vbv_bufsize=78125 / crf_max=0.0 / nal_hrd=none / filler=0 / ip_ratio=1.35 / pb_ratio=1.25 / aq=3:0.85 / aq-sensitivity=10.00 / aq-factor=1.00:1.00:1.00 / aq2=0 / aq3=0
Language                                 : Italian
Default                                  : Yes
Forced                                   : No
Color range                              : Limited
Color primaries                          : BT.709
Transfer characteristics                 : BT.709
Matrix coefficients                      : BT.709

Audio
ID                                       : 2
Format                                   : E-AC-3
Format/Info                              : Enhanced AC-3
Commercial name                          : Dolby Digital Plus
Codec ID                                 : A_EAC3
Duration                                 : 2 h 4 min
Bit rate mode                            : Constant
Bit rate                                 : 1 023 kb/s
Channel(s)                               : 6 channels
Channel layout                           : L R C LFE Ls Rs
Sampling rate                            : 48.0 kHz
Frame rate                               : 93.750 FPS (512 SPF)
Compression mode                         : Lossy
Stream size                              : 915 MiB (9%)
Title                                    : Italiano 5.1 [BluRay]
Language                                 : Italian
Service kind                             : Complete Main
Default                                  : Yes
Forced                                   : No

Text #1
ID                                       : 3
Format                                   : UTF-8
Codec ID                                 : S_TEXT/UTF8
Codec ID/Info                            : UTF-8 Plain Text
Duration                                 : 1 h 52 min
Bit rate                                 : 52 b/s
Count of elements                        : 1277
Stream size                              : 43.6 KiB (0%)
Title                                    : Completos [SRT]
Language                                 : Spanish
Default                                  : Yes
Forced                                   : No

Text #2
ID                                       : 4
Format                                   : UTF-8
Codec ID                                 : S_TEXT/UTF8
Codec ID/Info                            : UTF-8 Plain Text
Duration                                 : 1 h 55 min
Bit rate                                 : 52 b/s
Count of elements                        : 1364
Stream size                              : 44.5 KiB (0%)
Title                                    : Completos [SRT]
Language                                 : Italian
Default                                  : No
Forced                                   : No

Menu
00:00:00.000                             : :Chapter 01
00:10:24.000                             : :Chapter 02
00:20:41.708                             : :Chapter 03
00:31:29.250                             : :Chapter 04
00:41:29.958                             : :Chapter 05
00:51:46.792                             : :Chapter 06
01:01:43.833                             : :Chapter 07
01:13:06.500                             : :Chapter 08
01:23:58.917                             : :Chapter 09
01:33:31.917                             : :Chapter 10
01:44:55.667                             : :Chapter 11
01:53:57.458                             : :Chapter 12

www.club-hd.com





Enlaces de Mega y Google Drive solo disponibles para Miembros VIP

Compra tu Membresía VIP y apoya a Club-HD!

ATENCIÓN! Tenemos TODO el material de Club-HD disponible por Mega y Google Drive, enlaces 100% activos y online hasta la fecha

Llévate tus cuentas Mega PRO II gratis con tu membresía VIP!
Todos los posts vivos con links de Mega y Google Drive.
Todo el material de Club-HD desbloqueado y sin publicidad.

Click Aquí para más información.

Para ver este contenido oculto, debes dar click en una de las siguientes reacciones: Like Like, Love Love, Haha Haha, Wow Wow, Sad Sad, Angry Angry

Para ver este contenido oculto, debes dar click en una de las siguientes reacciones: Like Like, Love Love, Haha Haha, Wow Wow, Sad Sad, Angry Angry

Para ver este contenido oculto, debes dar click en una de las siguientes reacciones: Like Like, Love Love, Haha Haha, Wow Wow, Sad Sad, Angry Angry


Para ver este contenido oculto, debes dar click en una de las siguientes reacciones: Like Like, Love Love, Haha Haha, Wow Wow, Sad Sad, Angry Angry
 
Última edición:

rachi

Active member
Registrado
21 Jul 2018
Mensajes
650
Puntos de reacción
66
Puntos
28
Gracias por el aporte
 

FUNKSW

Active member
Miembro VIP
Registrado
12 Dic 2015
Mensajes
366
Puntos de reacción
156
Puntos
43
Edad
42
Grande Roberto Benigni :cool:

Magnifico aportazo. Gracias :love:
 

cripp

Well-known member
Registrado
27 Ago 2012
Mensajes
8,059
Puntos de reacción
463
Puntos
113
Gracias por compartir
 

Usuarios Que Están Viendo Este Tema (Total: 1, Miembros: 0, Invitados: 1)

Arriba