Pitch Black (2000) Director's cut 720p BDRip Dual Latino-Inglés [Subt. Esp] (Ciencia ficción. Terror)

Maestro Revolver

Well-known member
Miembro del Staff
Administrador
Registro
9 Ago 2012
Mensajes
3.567






TÍTULO ORIGINAL: Pitch Black
AÑO: 2000
DURACIÓN: 118 min.
PAÍS: USA
DIRECTOR: David Twohy
GUIÓN: Jim Whea t, Ken Whea t, David Twohy
REPARTO: Vin Diesel, Radha Mitchell, Cole Hauser, Keith David, Lewis Fitz-Gerald, Claudia Black, Rhiana Griffith, John Moore, Simon Burke, Les Chantery, Sam Sari, Firass Dirani, Ric Anderson, Vic Wilson, Angela MoorePeter Chiang. Ken Twohy
PRODUCTORA: Gramercy Pictures presenta una producción Interscope Communications
GÉNERO: Ciencia ficción. Terror | Extraterrestres
: http://www.imdb.com/title/tt0134847/






Durante un viaje interestelar, un carguero espacial sufre una avería a causa de una tormenta de asteroides, viéndose obligado a efectuar un aterrizaje de emergencia en el que muere parte del pasaje. Un asesino muy peligroso, Riddick, que formaba parte de la carga, huye del lugar dejando a los supervivientes con dos preocupaciones, él y unas peligrosas criaturas nocturnas que salen a la superficie cuando los tres soles del planeta se oscurecen a causa de un eclipse.
























La pelicula NO tiene ninguna marca... solo colocamos el nombre de esta web en las capturas






Código:
General
Format                                   : Matroska
Format version                           : Version 2
File size                                : 3.39 GiB
Duration                                 : 1h 51mn
Overall bit rate                         : 4 338 Kbps
Movie name                               : www.club-hd.com
Encoded date                             : UTC 2013-07-26 15:34:40
Writing application                      : mkvmerge v5.7.0 ('The Whirlwind') built on Jul  8 2012 20:08:51
Writing library                          : libebml v1.2.3 + libmatroska v1.3.0

Video
ID                                       : 1
Format                                   : AVC
Format/Info                              : Advanced Video Codec
Format profile                           : High@L4.1
Format settings, CABAC                   : Yes
Format settings, ReFrames                : 8 frames
Codec ID                                 : V_MPEG4/ISO/AVC
Duration                                 : 1h 51mn
Bit rate                                 : 3 500 Kbps
Width                                    : 1 280 pixels
Height                                   : 544 pixels
Display aspect ratio                     : 2.35:1
Frame rate mode                          : Constant
Frame rate                               : 23.976 fps
Color space                              : YUV
Chroma subsampling                       : 4:2:0
Bit depth                                : 8 bits
Scan type                                : Progressive
Bits/(Pixel*Frame)                       : 0.210
Stream size                              : 2.62 GiB (77%)
Title                                    : www.club-hd.com
Writing library                          : x264 core 120
Language                                 : English
Default                                  : Yes
Forced                                   : No
Color primaries                          : BT.709
Transfer characteristics                 : BT.709
Matrix coefficients                      : BT.709

Audio #1
ID                                       : 2
Format                                   : AC-3
Format/Info                              : Audio Coding 3
Mode extension                           : CM (complete main)
Format settings, Endianness              : Big
Codec ID                                 : A_AC3
Duration                                 : 1h 51mn
Bit rate mode                            : Constant
Bit rate                                 : 448 Kbps
Channel(s)                               : 6 channels
Channel positions                        : Front: L C R, Side: L R, LFE
Sampling rate                            : 48.0 KHz
Bit depth                                : 16 bits
Compression mode                         : Lossy
Stream size                              : 359 MiB (10%)
Title                                    : www.club-hd.com  >>  Latino [Edición - Revolver22]
Language                                 : Spanish
Default                                  : Yes
Forced                                   : No

Audio #2
ID                                       : 3
Format                                   : AC-3
Format/Info                              : Audio Coding 3
Mode extension                           : CM (complete main)
Format settings, Endianness              : Big
Codec ID                                 : A_AC3
Duration                                 : 1h 51mn
Bit rate mode                            : Constant
Bit rate                                 : 448 Kbps
Channel(s)                               : 6 channels
Channel positions                        : Front: L C R, Side: L R, LFE
Sampling rate                            : 48.0 KHz
Bit depth                                : 16 bits
Compression mode                         : Lossy
Stream size                              : 359 MiB (10%)
Title                                    : www.club-hd.com  >>  Inglés
Language                                 : English
Default                                  : No
Forced                                   : No

Text #1
ID                                       : 4
Format                                   : UTF-8
Codec ID                                 : S_TEXT/UTF8
Codec ID/Info                            : UTF-8 Plain Text
Title                                    : Forzados
Language                                 : Spanish
Default                                  : Yes
Forced                                   : No

Text #2
ID                                       : 5
Format                                   : UTF-8
Codec ID                                 : S_TEXT/UTF8
Codec ID/Info                            : UTF-8 Plain Text
Title                                    : Completos
Language                                 : Spanish
Default                                  : No
Forced                                   : No



Audio Latino Editado

El audio Latino fue editado por mi (Revolver22) al ser una versión Director's cut, no existe el audio latino completo de esta película, por ese motivo lo trabaje (6 horas de trabajo :D ) agregando partes en inglés (las partes agregadas por el director). También les dejo en el mkv (y sueltos) los subtítulos Forzados para esas partes donde hablan en inglés (Director's cut). Espero les guste el trabajo de edición que tanto tiempo me costo :D








Enlaces de Mega y Google Drive solo disponibles para Miembros VIP

Compra tu Membresía VIP y apoya a Club-HD!

ATENCIÓN! Tenemos TODO el material de Club-HD disponible por Mega y Google Drive, enlaces 100% activos y online hasta la fecha

Llévate tus cuentas Mega PRO III gratis con tu membresía VIP!
Todos los posts vivos con links de Mega y Google Drive.
Todo el material de Club-HD desbloqueado y sin publicidad.

Click Aquí para más información.


Para ver este contenido oculto, debes dar click en una de las siguientes reacciones : Like Like, Love Love, Haha Haha, Wow Wow, Sad Sad, Angry Angry


Para ver este contenido oculto, debes dar click en una de las siguientes reacciones : Like Like, Love Love, Haha Haha, Wow Wow, Sad Sad, Angry Angry
 
Última edición por un moderador:

Usuarios Que Están Viendo Este Tema (Total: 1, Miembros: 0, Invitados: 1)

Quién Leyó Este Tema (Total Miembros: 1)

Arriba