Point Break (1991) 720p BDRip Dual Latino-Inglés [Subt. Esp] (Acción)

Max

Admin
Miembro del Staff
Administrador
Miembro VIP
Registro
8 Ago 2012
Mensajes
6.036
Ubicación
Disco C




Título original: Point Break
Título en Latino: Punto Límite
Año: 1991
Duración: 125 min.
País: Estados Unidos
Director: Kathryn Bigelow
Guión: Peter Iliff
Música: Mark Isham
Fotografía: Donald Peterman (AKA Don Peterman)
Reparto: Keanu Reeves, Patrick Swayze, Gary Busey, Lori Petty, James LeGros, John Philbin, John C. McGinley, Lee Tergesen, Tom Sizemore
Productora: 20th Century Fox
Género: Acción | Robos & Atracos. Crimen. Deporte. Surf

http://www.imdb.com/title/tt0102685/?ref_=fn_al_tt_1






Johnny Utah (Keanu Reeves), un joven agente del FBI, se infiltra en los ambientes del surf para desenmascarar a una banda de atracadores que, como sello de identidad, usan caretas de presidentes de los Estados Unidos durante sus golpes. Pero Johnny pronto se encapricha de la guapa Tyler (Lori Petty) y, además, conoce a Bodhi (Patrick Swayze), el jefe de la banda, un hombre que vive al límite y que acaba ejerciendo una gran influencia sobre el joven policía.































Código:
General
Complete name                            : Point Break (1991) 720p BDRip Dual Latino-Inglés [Subt. Esp].mkv
Format                                   : Matroska
Format version                           : Version 2
File size                                : 4.08 GiB
Duration                                 : 2h 2mn
Overall bit rate                         : 4 785 Kbps
Movie name                               : www.club-hd.com --> Point Break (1991) 720p BDRip Dual Latino-Inglés [Subt. Esp]
Encoded date                             : UTC 2013-09-19 22:34:12
Writing application                      : mkvmerge v5.8.0 ('No Sleep / Pillow') built on Sep  2 2012 15:37:04
Writing library                          : libebml v1.2.3 + libmatroska v1.3.0

Video
ID                                       : 1
Format                                   : AVC
Format/Info                              : Advanced Video Codec
Format profile                           : High@L4.1
Format settings, CABAC                   : Yes
Format settings, ReFrames                : 5 frames
Muxing mode                              : Header stripping
Codec ID                                 : V_MPEG4/ISO/AVC
Duration                                 : 2h 2mn
Bit rate                                 : 4 000 Kbps
Width                                    : 1 280 pixels
Height                                   : 544 pixels
Display aspect ratio                     : 2.35:1
Original display aspect ratio            : 2.35:1
Frame rate mode                          : Constant
Frame rate                               : 23.976 fps
Color space                              : YUV
Chroma subsampling                       : 4:2:0
Bit depth                                : 8 bits
Scan type                                : Progressive
Bits/(Pixel*Frame)                       : 0.240
Stream size                              : 3.29 GiB (81%)
Title                                    : Point Break (1991) 720p BDRip Dual Latino-Inglés [Subt. Esp]
Writing library                          : x264 core 120
Encoding settings                        : cabac=1 / ref=6 / deblock=1:-2:-2 / analyse=0x3:0x133 / me=umh / subme=10 / psy=1 / psy_rd=1.00:0.00 / mixed_ref=1 / me_range=24 / chroma_me=1 / trellis=2 / 8x8dct=1 / cqm=0 / deadzone=21,11 / fast_pskip=1 / chroma_qp_offset=-2 / threads=24 / sliced_threads=0 / nr=0 / decimate=1 / interlaced=0 / bluray_compat=0 / constrained_intra=0 / bframes=3 / b_pyramid=1 / b_adapt=1 / b_bias=0 / direct=1 / weightb=1 / open_gop=0 / weightp=2 / keyint=240 / keyint_min=24 / scenecut=40 / intra_refresh=0 / rc_lookahead=50 / rc=abr / mbtree=1 / bitrate=4000 / ratetol=1.0 / qcomp=0.60 / qpmin=3 / qpmax=69 / qpstep=4 / ip_ratio=1.40 / aq=1:1.00
Language                                 : English
Default                                  : Yes
Forced                                   : No
Color primaries                          : BT.709
Transfer characteristics                 : BT.709
Matrix coefficients                      : BT.709

Audio #1
ID                                       : 2
Format                                   : AC-3
Format/Info                              : Audio Coding 3
Format profile                           : Dolby Digital
Mode extension                           : CM (complete main)
Format settings, Endianness              : Big
Muxing mode                              : Header stripping
Codec ID                                 : A_AC3
Duration                                 : 2h 2mn
Bit rate mode                            : Constant
Bit rate                                 : 192 Kbps
Channel(s)                               : 2 channels
Channel positions                        : Front: L R
Sampling rate                            : 48.0 KHz
Bit depth                                : 16 bits
Compression mode                         : Lossy
Stream size                              : 168 MiB (4%)
Title                                    : Point Break (1991) - Español Latino AC3 2.0
Language                                 : Spanish
Default                                  : Yes
Forced                                   : No

Audio #2
ID                                       : 3
Format                                   : AC-3
Format/Info                              : Audio Coding 3
Mode extension                           : CM (complete main)
Format settings, Endianness              : Big
Muxing mode                              : Header stripping
Codec ID                                 : A_AC3
Duration                                 : 2h 2mn
Bit rate mode                            : Constant
Bit rate                                 : 640 Kbps
Channel(s)                               : 6 channels
Channel positions                        : Front: L C R, Side: L R, LFE
Sampling rate                            : 48.0 KHz
Bit depth                                : 16 bits
Compression mode                         : Lossy
Stream size                              : 558 MiB (13%)
Title                                    : Point Break (1991) - Inglés AC3 5.1
Language                                 : English
Default                                  : No
Forced                                   : No

Text
ID                                       : 4
Format                                   : UTF-8
Codec ID                                 : S_TEXT/UTF8
Codec ID/Info                            : UTF-8 Plain Text
Title                                    : Point Break (1991) - Subtítulos Español
Language                                 : Spanish
Default                                  : No
Forced                                   : No







Todos los links son Intercambiables!



Enlaces de Mega y Google Drive solo disponibles para Miembros VIP

Compra tu Membresía VIP y apoya a Club-HD!

ATENCIÓN! Tenemos TODO el material de Club-HD disponible por Mega y Google Drive, enlaces 100% activos y online hasta la fecha

Llévate tus cuentas Mega PRO III gratis con tu membresía VIP!
Todos los posts vivos con links de Mega y Google Drive.
Todo el material de Club-HD desbloqueado y sin publicidad.

Click Aquí para más información.



Para ver este contenido oculto, debes dar click en una de las siguientes reacciones : Like Like, Love Love, Haha Haha, Wow Wow, Sad Sad, Angry Angry

 
Última edición:

DoomsDay Elite

Well-known member
Registro
5 Sep 2012
Mensajes
1.222
esta película habia visto maso menos unas 70 veces SUPER PELÍCULA mira justamente hace una semana le contaba a mi novia sobre esta película y mira aquí ya ahora si los poderes de premonición de max y el revo van mas de la comprensión jajajajaja que super aporte
 

Pedrum

The Buckminster
Registro
28 Ago 2012
Mensajes
1.092
Ubicación
Bahia Blanca
Que capo MAX COLT!!! Te lulciste con esta loquito... por eso yo siempre te defendí cuando salen los buitres diciendo que andas de vago xD :crcjd: :crcjd: :crcjd:

Muy buen aporte, recomendado, cuando keanu hacia buenas actuaciones. Subite Reacción en Cadena y te hago un monumento idolo.

Directo a la colección de oro!

Saludos!
 

Usuarios Que Están Viendo Este Tema (Total: 1, Miembros: 0, Invitados: 1)

Quién Leyó Este Tema (Total Miembros: 1)

Arriba