Power Book II: Ghost S02 E01 (2021) 1080p WEB-DL Starzplay Dual Latino-Inglés [Subt.Esp] (CRIMEN, DRAMA)

Tr3vor

Well-known member
Uploader
Colaborador
Registro
17 May 2018
Mensajes
1.270
Reacciones
12.987
Puntos
113
Edad
32

Reputation:






En "Ghost", Tariq sacrifica cualquier cosa para salvar a su familia. Se vuelve en contra de MacLean, Saxe y Tate. Monet se pregunta si Tariq es lo mejor para su familia.


MEDIAINFO
Código:
Format                      : Matroska
Format version              : Version 4
File size                   : 1.47 GiB
Duration                    : 1 h 2 min
Overall bit rate            : 3 367 kb/s
Encoded date                : UTC 2021-11-22 02:45:42
Writing application         : mkvmerge v54.0.0 ('F Maj Pixie') 64-bit
Writing library             : libebml v1.4.2 + libmatroska v1.6.3
Cover                       : Yes
Attachments                 : Cover.jpg

Video
ID                          : 1
Format                      : AVC
Format/Info                 : Advanced Video Codec
Format profile              : High@L4.1
Format settings             : CABAC / 5 Ref Frames
Format settings, CABAC      : Yes
Format settings, Reference  : 5 frames
Codec ID                    : V_MPEG4/ISO/AVC
Duration                    : 1 h 2 min
Bit rate                    : 2 596 kb/s
Width                       : 1 920 pixels
Height                      : 1 080 pixels
Display aspect ratio        : 16:9
Frame rate mode             : Constant
Frame rate                  : 23.976 (24000/1001) FPS
Color space                 : YUV
Chroma subsampling          : 4:2:0
Bit depth                   : 8 bits
Scan type                   : Progressive
Bits/(Pixel*Frame)          : 0.052
Stream size                 : 1.13 GiB (77%)
Title                       : By Trevor
Default                     : Yes
Forced                      : No

Audio #1
ID                          : 2
Format                      : AC-3
Format/Info                 : Audio Coding 3
Commercial name             : Dolby Digital
Codec ID                    : A_AC3
Duration                    : 1 h 2 min
Bit rate mode               : Constant
Bit rate                    : 384 kb/s
Channel(s)                  : 6 channels
Channel layout              : L R C LFE Ls Rs
Sampling rate               : 48.0 kHz
Frame rate                  : 31.250 FPS (1536 SPF)
Compression mode            : Lossy
Stream size                 : 172 MiB (11%)
Title                       : Español latino
Language                    : Spanish
Service kind                : Complete Main
Default                     : No
Forced                      : No

Audio #2
ID                          : 3
Format                      : AC-3
Format/Info                 : Audio Coding 3
Commercial name             : Dolby Digital
Codec ID                    : A_AC3
Duration                    : 1 h 2 min
Bit rate mode               : Constant
Bit rate                    : 384 kb/s
Channel(s)                  : 6 channels
Channel layout              : L R C LFE Ls Rs
Sampling rate               : 48.0 kHz
Frame rate                  : 31.250 FPS (1536 SPF)
Compression mode            : Lossy
Stream size                 : 172 MiB (11%)
Title                       : Inglés
Language                    : English
Service kind                : Complete Main
Default                     : No
Forced                      : No

Text #1
ID                          : 4
Format                      : UTF-8
Codec ID                    : S_TEXT/UTF8
Codec ID/Info               : UTF-8 Plain Text
Duration                    : 3 s 3 ms
Bit rate                    : 165 b/s
Count of elements           : 2
Stream size                 : 62.0 Bytes (0%)
Title                       : Español latino [Forzados]
Language                    : Spanish
Default                     : Yes
Forced                      : Yes

Text #2
ID                          : 5
Format                      : UTF-8
Codec ID                    : S_TEXT/UTF8
Codec ID/Info               : UTF-8 Plain Text
Duration                    : 1 h 1 min
Bit rate                    : 71 b/s
Count of elements           : 1061
Stream size                 : 32.2 KiB (0%)
Title                       : Español latino [Completos]
Language                    : Spanish
Default                     : No
Forced                      : No

Text #3
ID                          : 6
Format                      : UTF-8
Codec ID                    : S_TEXT/UTF8
Codec ID/Info               : UTF-8 Plain Text
Duration                    : 1 h 0 min
Bit rate                    : 79 b/s
Count of elements           : 1140
Stream size                 : 35.2 KiB (0%)
Title                       : Inglés [Completos]
Language                    : English
Default                     : No
Forced                      : No

Text #4
ID                          : 7
Format                      : UTF-8
Codec ID                    : S_TEXT/UTF8
Codec ID/Info               : UTF-8 Plain Text
Duration                    : 1 h 2 min
Bit rate                    : 96 b/s
Count of elements           : 1655
Stream size                 : 44.0 KiB (0%)
Title                       : SDH
Language                    : English
Default                     : No
Forced                      : No









Resolución de video: 1920x1080 (AVC, High@L4.1)
Formato de audio: AC3 384 kb/s 5.1 (Español latino), AC3 384 kb/s 5.1 (Inglés)
Formato de subtítulos: SubRip (.srt) (Completos & Forzados)
Lista de audio: Latino e inglés
Fuente: Starzplay





Enlaces de Mega y Fireload solo disponibles para Miembros VIP

Compra tu Membresía VIP y apoya a Club-HD!

ATENCIÓN! Tenemos TODO el material de Club-HD disponible por Mega y Fireload, enlaces 100% activos y online hasta la fecha

Llévate tus cuentas Mega PRO II gratis con tu membresía VIP!
Todos los posts vivos con links de Mega y Fireload.
Todo el material de Club-HD desbloqueado y sin publicidad.

Click Aquí para más información.


Enlaces de Mega y Fireload solo disponibles para Miembros VIP

Compra tu Membresía VIP y apoya a Club-HD!

ATENCIÓN! Tenemos TODO el material de Club-HD disponible por Mega y Fireload, enlaces 100% activos y online hasta la fecha

Llévate tus cuentas Mega PRO II gratis con tu membresía VIP!
Todos los posts vivos con links de Mega y Fireload.
Todo el material de Club-HD desbloqueado y sin publicidad.

Click Aquí para más información.
 
Última edición:

cripp

Well-known member
Registro
27 Ago 2012
Mensajes
9.683
Reacciones
845
Puntos
113

Reputation:

Gracias por compartir
 

Usuarios Que Están Viendo Este Tema (Total: 1, Miembros: 0, Invitados: 1)

Arriba