Premonition (2007) 720p BDRip Dual Latino-Inglés [Subt. Esp] (Thriller. Drama)

Maestro Revolver

Miembro del Staff
Administrador
Registro
9 Ago 2012
Mensajes
3.157








TÍTULO ORIGINAL: Premonition
AÑO: 2007
DURACIÓN: 110 min.
PAÍS: USA
DIRECTOR: Mennan Yapo
GUIÓN: Bill Kelly
REPARTO: Sandra Bullock, Julian McMahon, Nia Long, Amber Valletta, Peter Stormare, Jason Douglas, Kate Nelligan, Shyann McClure, Courtney Taylor Burness
PRODUCTORA: MGM / Hyde Park Entertainment
GÉNERO: Thriller. Drama | Sobrenatural
: http://www.imdb.com/title/tt0477071/






Linda Hanson (Sandra Bullock) tiene una casa preciosa, un marido que la quiere y dos hijas adorables. Su vida es perfecta, hasta que recibe una devastadora noticia: su esposo Jim (Julian McMahon) ha fallecido en un accidente de coche. Es lo peor que le podía pasar a esta amante esposa y madre. Pero, ¿se lo ha imaginado? Al despertarse a la mañana siguiente, Linda descubre que su marido sigue vivo. En un principio, Linda cree que el accidente ha debido de ser una pesadilla... hasta que ocurre de nuevo. Algunos días Jim sigue a su lado cuando se despierta, pero otros debe enfrentarse a la realidad de haberse quedado viuda. Por alguna razón inexplicable, los días están desordenados. La traumática premonición de Linda desencadena una serie de extraños sucesos que alteran el tiempo. Su mundo está patas arriba y estas circunstancias surrealistas hacen que descubra que su vida quizá no era tan idílica como parecía. En un intento desesperado por salvar a su familia, Linda lucha furiosamente contra el tiempo y el destino para intentar conservar todo lo que ella y Jim han construido juntos.
























La pelicula NO tiene ninguna marca... solo colocamos el nombre de esta web en las capturas






Código:
General
Format                                   : Matroska
Format version                           : Version 2
File size                                : 4.43 GiB
Duration                                 : 1h 36mn
Overall bit rate                         : 6 578 Kbps
Movie name                               : www.club-hd.com
Encoded date                             : UTC 2013-12-13 04:23:34
Writing application                      : mkvmerge v5.7.0 ('The Whirlwind') built on Jul  8 2012 20:08:51
Writing library                          : libebml v1.2.3 + libmatroska v1.3.0

Video
ID                                       : 1
Format                                   : AVC
Format/Info                              : Advanced Video Codec
Format profile                           : High@L4.1
Format settings, CABAC                   : Yes
Format settings, ReFrames                : 12 frames
Codec ID                                 : V_MPEG4/ISO/AVC
Duration                                 : 1h 36mn
Bit rate                                 : 5 615 Kbps
Width                                    : 1 280 pixels
Height                                   : 534 pixels
Display aspect ratio                     : 2.40:1
Frame rate mode                          : Constant
Frame rate                               : 23.976 fps
Color space                              : YUV
Chroma subsampling                       : 4:2:0
Bit depth                                : 8 bits
Scan type                                : Progressive
Bits/(Pixel*Frame)                       : 0.343
Stream size                              : 3.78 GiB (85%)
Title                                    : www.club-hd.com
Writing library                          : x264 core 129 r2245kMod bc13772
Language                                 : English
Default                                  : Yes
Forced                                   : No
Color primaries                          : BT.709
Transfer characteristics                 : BT.709
Matrix coefficients                      : BT.709

Audio #1
ID                                       : 2
Format                                   : AC-3
Format/Info                              : Audio Coding 3
Mode extension                           : CM (complete main)
Format settings, Endianness              : Big
Codec ID                                 : A_AC3
Duration                                 : 1h 36mn
Bit rate mode                            : Constant
Bit rate                                 : 192 Kbps
Channel(s)                               : 2 channels
Channel positions                        : Front: L R
Sampling rate                            : 48.0 KHz
Bit depth                                : 16 bits
Compression mode                         : Lossy
Stream size                              : 132 MiB (3%)
Title                                    : www.club-hd.com  >>  Latino
Language                                 : Spanish
Default                                  : Yes
Forced                                   : No

Audio #2
ID                                       : 3
Format                                   : AC-3
Format/Info                              : Audio Coding 3
Mode extension                           : CM (complete main)
Format settings, Endianness              : Big
Codec ID                                 : A_AC3
Duration                                 : 1h 36mn
Bit rate mode                            : Constant
Bit rate                                 : 640 Kbps
Channel(s)                               : 6 channels
Channel positions                        : Front: L C R, Side: L R, LFE
Sampling rate                            : 48.0 KHz
Bit depth                                : 16 bits
Compression mode                         : Lossy
Stream size                              : 442 MiB (10%)
Title                                    : www.club-hd.com  >>  Inglés
Language                                 : English
Default                                  : No
Forced                                   : No

Text
ID                                       : 4
Format                                   : UTF-8
Codec ID                                 : S_TEXT/UTF8
Codec ID/Info                            : UTF-8 Plain Text
Language                                 : Spanish
Default                                  : No
Forced                                   : No

Menu
00:00:00.000                             : en:00:00:00.000
00:07:54.974                             : en:00:07:54.974
00:12:15.693                             : en:00:12:15.693
00:16:26.235                             : en:00:16:26.235
00:19:58.447                             : en:00:19:58.447
00:27:33.318                             : en:00:27:33.318
00:33:01.813                             : en:00:33:01.813
00:38:01.362                             : en:00:38:01.362
00:43:11.255                             : en:00:43:11.255
00:48:46.173                             : en:00:48:46.173
00:56:17.457                             : en:00:56:17.457
01:02:52.310                             : en:01:02:52.310
01:08:02.745                             : en:01:08:02.745
01:16:44.433                             : en:01:16:44.433
01:23:44.602                             : en:01:23:44.602
01:27:44.634                             : en:01:27:44.634








Enlaces de Mega y Google Drive solo disponibles para Miembros VIP

Compra tu Membresía VIP y apoya a Club-HD!

ATENCIÓN! Tenemos TODO el material de Club-HD disponible por Mega y Google Drive, enlaces 100% activos y online hasta la fecha

Llévate tus cuentas Mega PRO III gratis con tu membresía VIP!
Todos los posts vivos con links de Mega y Google Drive.
Todo el material de Club-HD desbloqueado y sin publicidad.

Click Aquí para más información.



Para ver este contenido oculto, debes dar click en una de las siguientes reacciones : Like Like, Love Love, Haha Haha, Wow Wow, Sad Sad, Angry Angry

 
Última edición por un moderador:
Registro
5 Sep 2012
Mensajes
1.107
no sabia nada de esta Pnsand0 y viendo el trailer tiene buena pinta se ve como ese tipo de películas que te atrapan solo por su trama !GRACIAS BESTIA
 
Registro
28 Ago 2012
Mensajes
750
yo ayer me canse de buscarlo en la web, por si alguien lo compartia y en buena calidad me canse y nada, hoy entro a club hd, y es cuando veo que apenas lo estaban subiendo, gracias por su esfuerzo
 

Usuarios Que Están Viendo Este Tema (Total: 1, Miembros: 0, Invitados: 1)

Quién Leyó Este Tema (Total Miembros: 3)

Arriba