Prisoners (2013) 720p BDRip Audio Inglés [Subt. Esp] (Thriller. Drama)

Maestro Revolver

Well-known member
Miembro del Staff
Administrador
Registro
9 Ago 2012
Mensajes
3.567








TÍTULO ORIGINAL: Prisoners
AÑO: 2013
DURACIÓN: 153 min.
PAÍS: USA
DIRECTOR: Denis Villeneuve
GUIÓN: Aaron Guzikowski
REPARTO: Hugh Jackman, Jake Gyllenhaal, Viola Davis, Maria Bello, Terrence Howard, Melissa Leo, Paul Dano, David Dastmalchian, Dylan Minnette, Erin Gerasimovich, Kyla Drew Simmons, Zoe Soul, Len Cariou, Wayne Duvall, Sandra Ellis Laffert
PRODUCTORA: WB / Alcon Entertainment / 8:38 Productions / Madhouse Entertainment
GÉNERO: Thriller. Drama | Crimen. Policíaco. Secuestros / Desapariciones. Venganza
: http://www.imdb.com/title/tt1392214/

Premios: 2013: Festival de Toronto: Finalista al Premio del público (Mejor película)






Keller Dover se enfrenta a la peor pesadilla de un padre. Anna, su hija de seis años, ha desaparecido con su amiga Joy y, a medida que pasa el tiempo, el pánico lo va dominando. Desesperado, decide ocuparse personalmente del asunto. Pero, ¿hasta dónde está dispuesto a llegar para averiguar el paradero de su hija?
























La pelicula NO tiene ninguna marca... solo colocamos el nombre de esta web en las capturas






Código:
General
Format                                   : Matroska
Format version                           : Version 2
File size                                : 6.56 GiB
Duration                                 : 2h 33mn
Overall bit rate mode                    : Variable
Overall bit rate                         : 6 135 Kbps
Movie name                               : www.club-hd.com
Encoded date                             : UTC 2013-11-22 23:42:14
Writing application                      : mkvmerge v5.7.0 ('The Whirlwind') built on Jul  8 2012 20:08:51
Writing library                          : libebml v1.2.3 + libmatroska v1.3.0

Video
ID                                       : 1
Format                                   : AVC
Format/Info                              : Advanced Video Codec
Format profile                           : High@L4.1
Format settings, CABAC                   : Yes
Format settings, ReFrames                : 8 frames
Codec ID                                 : V_MPEG4/ISO/AVC
Duration                                 : 2h 33mn
Bit rate mode                            : Variable
Bit rate                                 : 5 500 Kbps
Maximum bit rate                         : 25.0 Mbps
Width                                    : 1 280 pixels
Height                                   : 720 pixels
Display aspect ratio                     : 16:9
Frame rate mode                          : Constant
Frame rate                               : 23.976 fps
Color space                              : YUV
Chroma subsampling                       : 4:2:0
Bit depth                                : 8 bits
Scan type                                : Progressive
Bits/(Pixel*Frame)                       : 0.249
Stream size                              : 5.75 GiB (88%)
Title                                    : www.club-hd.com
Writing library                          : x264 core 112 r1867 22bfd31
Language                                 : English
Default                                  : Yes
Forced                                   : No

Audio
ID                                       : 2
Format                                   : AC-3
Format/Info                              : Audio Coding 3
Mode extension                           : CM (complete main)
Format settings, Endianness              : Big
Codec ID                                 : A_AC3
Duration                                 : 2h 33mn
Bit rate mode                            : Constant
Bit rate                                 : 640 Kbps
Channel(s)                               : 6 channels
Channel positions                        : Front: L C R, Side: L R, LFE
Sampling rate                            : 48.0 KHz
Bit depth                                : 16 bits
Compression mode                         : Lossy
Stream size                              : 701 MiB (10%)
Title                                    : www.club-hd.com
Language                                 : English
Default                                  : Yes
Forced                                   : No

Text
ID                                       : 3
Format                                   : UTF-8
Codec ID                                 : S_TEXT/UTF8
Codec ID/Info                            : UTF-8 Plain Text
Title                                    : www.club-hd.com
Language                                 : Spanish
Default                                  : Yes
Forced                                   : No




Sin Contraseña | Simple Extracción








Para ver este contenido oculto, debes dar click en una de las siguientes reacciones : Like Like, Love Love, Haha Haha, Wow Wow, Sad Sad, Angry Angry



Para ver este contenido oculto, debes dar click en una de las siguientes reacciones : Like Like, Love Love, Haha Haha, Wow Wow, Sad Sad, Angry Angry


Para ver este contenido oculto, debes dar click en una de las siguientes reacciones : Like Like, Love Love, Haha Haha, Wow Wow, Sad Sad, Angry Angry


Para ver este contenido oculto, debes dar click en una de las siguientes reacciones : Like Like, Love Love, Haha Haha, Wow Wow, Sad Sad, Angry Angry



 
Última edición:

vyx

Well-known member
Colaborador
Miembro VIP
Registro
2 Sep 2012
Mensajes
943
gracias por la peli revolver se agradece todo lo que hace el Club-hd
 

Usuarios Que Están Viendo Este Tema (Total: 1, Miembros: 0, Invitados: 1)

Quién Leyó Este Tema (Total Miembros: 1)

Arriba